  0
SECTION
  2
HEADER
  9
$ACADVER
  1
AC1015
  9
$ACADMAINTVER
 70
    18
  9
$DWGCODEPAGE
  3
ANSI_1252
  9
$INSBASE
 10
0.0
 20
0.0
 30
0.0
  9
$EXTMIN
 10
0.0
 20
0.0
 30
0.0
  9
$EXTMAX
 10
297.0
 20
210.0
 30
0.0
  9
$LIMMIN
 10
0.0
 20
0.0
  9
$LIMMAX
 10
297.0
 20
210.0
  9
$ORTHOMODE
 70
     0
  9
$REGENMODE
 70
     1
  9
$FILLMODE
 70
     1
  9
$QTEXTMODE
 70
     0
  9
$MIRRTEXT
 70
     0
  9
$LTSCALE
 40
1.0
  9
$ATTMODE
 70
     1
  9
$TEXTSIZE
 40
0.2
  9
$TRACEWID
 40
0.05
  9
$TEXTSTYLE
  7
Standard
  9
$CLAYER
  8
0
  9
$CELTYPE
  6
ByLayer
  9
$CECOLOR
 62
   256
  9
$CELTSCALE
 40
1.0
  9
$DISPSILH
 70
     0
  9
$DIMSCALE
 40
1.0
  9
$DIMASZ
 40
1.799999999999999
  9
$DIMEXO
 40
0.0625
  9
$DIMDLI
 40
0.38
  9
$DIMRND
 40
0.0
  9
$DIMDLE
 40
0.0
  9
$DIMEXE
 40
0.18
  9
$DIMTP
 40
0.0
  9
$DIMTM
 40
0.0
  9
$DIMTXT
 40
0.3499999940395355
  9
$DIMCEN
 40
0.09
  9
$DIMTSZ
 40
0.0
  9
$DIMTOL
 70
     0
  9
$DIMLIM
 70
     0
  9
$DIMTIH
 70
     1
  9
$DIMTOH
 70
     1
  9
$DIMSE1
 70
     0
  9
$DIMSE2
 70
     0
  9
$DIMTAD
 70
     0
  9
$DIMZIN
 70
     0
  9
$DIMBLK
  1

  9
$DIMASO
 70
     1
  9
$DIMSHO
 70
     1
  9
$DIMPOST
  1

  9
$DIMAPOST
  1

  9
$DIMALT
 70
     0
  9
$DIMALTD
 70
     2
  9
$DIMALTF
 40
25.4
  9
$DIMLFAC
 40
1.0
  9
$DIMTOFL
 70
     0
  9
$DIMTVP
 40
0.0
  9
$DIMTIX
 70
     0
  9
$DIMSOXD
 70
     0
  9
$DIMSAH
 70
     0
  9
$DIMBLK1
  1

  9
$DIMBLK2
  1

  9
$DIMSTYLE
  2
Standard
  9
$DIMCLRD
 70
     0
  9
$DIMCLRE
 70
     0
  9
$DIMCLRT
 70
     0
  9
$DIMTFAC
 40
1.0
  9
$DIMGAP
 40
0.09
  9
$DIMJUST
 70
     0
  9
$DIMSD1
 70
     0
  9
$DIMSD2
 70
     0
  9
$DIMTOLJ
 70
     1
  9
$DIMTZIN
 70
     0
  9
$DIMALTZ
 70
     0
  9
$DIMALTTZ
 70
     0
  9
$DIMUPT
 70
     0
  9
$DIMDEC
 70
     4
  9
$DIMTDEC
 70
     4
  9
$DIMALTU
 70
     2
  9
$DIMALTTD
 70
     2
  9
$DIMTXSTY
  7
Standard
  9
$DIMAUNIT
 70
     0
  9
$DIMADEC
 70
     0
  9
$DIMALTRND
 40
0.0
  9
$DIMAZIN
 70
     0
  9
$DIMDSEP
 70
    46
  9
$DIMATFIT
 70
     3
  9
$DIMFRAC
 70
     0
  9
$DIMLDRBLK
  1

  9
$DIMLUNIT
 70
     2
  9
$DIMLWD
 70
    -2
  9
$DIMLWE
 70
    -2
  9
$DIMTMOVE
 70
     0
  9
$LUNITS
 70
     2
  9
$LUPREC
 70
     4
  9
$SKETCHINC
 40
0.1
  9
$FILLETRAD
 40
0.0
  9
$AUNITS
 70
     0
  9
$AUPREC
 70
     0
  9
$MENU
  1
.
  9
$ELEVATION
 40
0.0
  9
$PELEVATION
 40
0.0
  9
$THICKNESS
 40
0.0
  9
$LIMCHECK
 70
     0
  9
$CHAMFERA
 40
0.0
  9
$CHAMFERB
 40
0.0
  9
$CHAMFERC
 40
0.0
  9
$CHAMFERD
 40
0.0
  9
$SKPOLY
 70
     0
  9
$TDCREATE
 40
2454105.399281898
  9
$TDUCREATE
 40
2454105.357615232
  9
$TDUPDATE
 40
2454105.399281898
  9
$TDUUPDATE
 40
2454105.357615232
  9
$TDINDWG
 40
0.0000830093
  9
$TDUSRTIMER
 40
0.0000830093
  9
$USRTIMER
 70
     1
  9
$ANGBASE
 50
0.0
  9
$ANGDIR
 70
     0
  9
$PDMODE
 70
     0
  9
$PDSIZE
 40
0.0
  9
$PLINEWID
 40
0.0
  9
$SPLFRAME
 70
     0
  9
$SPLINETYPE
 70
     6
  9
$SPLINESEGS
 70
     8
  9
$HANDSEED
  5
629
  9
$SURFTAB1
 70
     6
  9
$SURFTAB2
 70
     6
  9
$SURFTYPE
 70
     6
  9
$SURFU
 70
     6
  9
$SURFV
 70
     6
  9
$UCSBASE
  2

  9
$UCSNAME
  2

  9
$UCSORG
 10
0.0
 20
0.0
 30
0.0
  9
$UCSXDIR
 10
1.0
 20
0.0
 30
0.0
  9
$UCSYDIR
 10
0.0
 20
1.0
 30
0.0
  9
$UCSORTHOREF
  2

  9
$UCSORTHOVIEW
 70
     0
  9
$UCSORGTOP
 10
0.0
 20
0.0
 30
0.0
  9
$UCSORGBOTTOM
 10
0.0
 20
0.0
 30
0.0
  9
$UCSORGLEFT
 10
0.0
 20
0.0
 30
0.0
  9
$UCSORGRIGHT
 10
0.0
 20
0.0
 30
0.0
  9
$UCSORGFRONT
 10
0.0
 20
0.0
 30
0.0
  9
$UCSORGBACK
 10
0.0
 20
0.0
 30
0.0
  9
$PUCSBASE
  2

  9
$PUCSNAME
  2

  9
$PUCSORG
 10
0.0
 20
0.0
 30
0.0
  9
$PUCSXDIR
 10
1.0
 20
0.0
 30
0.0
  9
$PUCSYDIR
 10
0.0
 20
1.0
 30
0.0
  9
$PUCSORTHOREF
  2

  9
$PUCSORTHOVIEW
 70
     0
  9
$PUCSORGTOP
 10
0.0
 20
0.0
 30
0.0
  9
$PUCSORGBOTTOM
 10
0.0
 20
0.0
 30
0.0
  9
$PUCSORGLEFT
 10
0.0
 20
0.0
 30
0.0
  9
$PUCSORGRIGHT
 10
0.0
 20
0.0
 30
0.0
  9
$PUCSORGFRONT
 10
0.0
 20
0.0
 30
0.0
  9
$PUCSORGBACK
 10
0.0
 20
0.0
 30
0.0
  9
$USERI1
 70
     0
  9
$USERI2
 70
     0
  9
$USERI3
 70
     0
  9
$USERI4
 70
     0
  9
$USERI5
 70
     0
  9
$USERR1
 40
0.0
  9
$USERR2
 40
0.0
  9
$USERR3
 40
0.0
  9
$USERR4
 40
0.0
  9
$USERR5
 40
0.0
  9
$WORLDVIEW
 70
     1
  9
$SHADEDGE
 70
     3
  9
$SHADEDIF
 70
    70
  9
$TILEMODE
 70
     1
  9
$MAXACTVP
 70
    64
  9
$PINSBASE
 10
0.0
 20
0.0
 30
0.0
  9
$PLIMCHECK
 70
     0
  9
$PEXTMIN
 10
0.0
 20
0.0
 30
0.0
  9
$PEXTMAX
 10
297.0
 20
210.0
 30
0.0
  9
$PLIMMIN
 10
0.0
 20
0.0
  9
$PLIMMAX
 10
297.0
 20
210.0
  9
$UNITMODE
 70
     0
  9
$VISRETAIN
 70
     1
  9
$PLINEGEN
 70
     0
  9
$PSLTSCALE
 70
     1
  9
$TREEDEPTH
 70
  3020
  9
$CMLSTYLE
  2
Standard
  9
$CMLJUST
 70
     0
  9
$CMLSCALE
 40
1.0
  9
$PROXYGRAPHICS
 70
     1
  9
$MEASUREMENT
 70
     1
  9
$CELWEIGHT
370
    -1
  9
$ENDCAPS
280
     0
  9
$JOINSTYLE
280
     0
  9
$LWDISPLAY
290
     0
  9
$INSUNITS
 70
     0
  9
$HYPERLINKBASE
  1

  9
$STYLESHEET
  1

  9
$XEDIT
290
     1
  9
$CEPSNTYPE
380
     0
  9
$PSTYLEMODE
290
     1
  9
$FINGERPRINTGUID
  2
{59EF40E7-32A0-48A6-BD16-D81A09F0C883}
  9
$VERSIONGUID
  2
{537D6F4C-92B7-459D-877A-7344BB8CC708}
  9
$EXTNAMES
290
     1
  9
$PSVPSCALE
 40
0.0
  9
$OLESTARTUP
290
     0
  0
ENDSEC
  0
SECTION
  2
CLASSES
  0
CLASS
  1
ACDBDICTIONARYWDFLT
  2
AcDbDictionaryWithDefault
  3
ObjectDBX Classes
 90
        0
280
     0
281
     0
  0
CLASS
  1
MATERIAL
  2
AcDbMaterial
  3
ObjectDBX Classes
 90
     1024
280
     0
281
     0
  0
CLASS
  1
VISUALSTYLE
  2
AcDbVisualStyle
  3
ObjectDBX Classes
 90
     4095
280
     0
281
     0
  0
CLASS
  1
TABLESTYLE
  2
AcDbTableStyle
  3
ObjectDBX Classes
 90
     4095
280
     0
281
     0
  0
CLASS
  1
DICTIONARYVAR
  2
AcDbDictionaryVar
  3
ObjectDBX Classes
 90
        0
280
     0
281
     0
  0
CLASS
  1
ACDBPLACEHOLDER
  2
AcDbPlaceHolder
  3
ObjectDBX Classes
 90
        0
280
     0
281
     0
  0
CLASS
  1
LAYOUT
  2
AcDbLayout
  3
ObjectDBX Classes
 90
        0
280
     0
281
     0
  0
ENDSEC
  0
SECTION
  2
TABLES
  0
TABLE
  2
VPORT
  5
8
330
0
100
AcDbSymbolTable
 70
     1
  0
VPORT
  5
28
330
8
100
AcDbSymbolTableRecord
100
AcDbViewportTableRecord
  2
*Active
 70
     0
 10
0.0
 20
0.0
 11
1.0
 21
1.0
 12
148.5
 22
105.0
 13
0.0
 23
0.0
 14
1.0
 24
1.0
 15
0.0
 25
0.0
 16
0.0
 26
0.0
 36
1.0
 17
0.0
 27
0.0
 37
0.0
 40
210.0
 41
1.414285714285714
 42
50.0
 43
0.0
 44
0.0
 50
0.0
 51
0.0
 71
     0
 72
   100
 73
     1
 74
     1
 75
     0
 76
     0
 77
     0
 78
     0
281
     0
 65
     1
110
0.0
120
0.0
130
0.0
111
1.0
121
0.0
131
0.0
112
0.0
122
1.0
132
0.0
 79
     0
146
0.0
  0
ENDTAB
  0
TABLE
  2
LTYPE
  5
5
330
0
100
AcDbSymbolTable
 70
    59
  0
LTYPE
  5
29
330
5
100
AcDbSymbolTableRecord
100
AcDbLinetypeTableRecord
  2
ByBlock
 70
     0
  3

 72
    65
 73
     0
 40
0.0
  0
LTYPE
  5
2A
330
5
100
AcDbSymbolTableRecord
100
AcDbLinetypeTableRecord
  2
ByLayer
 70
     0
  3

 72
    65
 73
     0
 40
0.0
  0
LTYPE
  5
2B
330
5
100
AcDbSymbolTableRecord
100
AcDbLinetypeTableRecord
  2
Continuous
 70
     0
  3
Solid line
 72
    65
 73
     0
 40
0.0
  0
LTYPE
  5
40
330
5
100
AcDbSymbolTableRecord
100
AcDbLinetypeTableRecord
  2
BY_STANDARD
 70
     0
  3
By Standard ____________    ____    ____   _
 72
    65
 73
     6
 40
1.240299999999999
 49
0.6614
 74
     0
 49
-0.0827
 74
     0
 49
0.1654
 74
     0
 49
-0.0827
 74
     0
 49
0.1654
 74
     0
 49
-0.0827
 74
     0
  0
LTYPE
  5
41
330
5
100
AcDbSymbolTableRecord
100
AcDbLinetypeTableRecord
  2
CHAIN
 70
     0
  3
Chain ____ _ ____ _ ____ _ ____ _ ____ _ ____
 72
    65
 73
     4
 40
0.7087
 49
0.4724000000000001
 74
     0
 49
-0.0591
 74
     0
 49
0.1181
 74
     0
 49
-0.0591
 74
     0
  0
LTYPE
  5
42
330
5
100
AcDbSymbolTableRecord
100
AcDbLinetypeTableRecord
  2
DASH_DOT
 70
     0
  3
Dash dot __ . __ . __ . __ . __ . __ . __ . __
 72
    65
 73
     4
 40
0.37
 49
0.24
 74
     0
 49
-0.06
 74
     0
 49
0.01
 74
     0
 49
-0.06
 74
     0
  0
LTYPE
  5
43
330
5
100
AcDbSymbolTableRecord
100
AcDbLinetypeTableRecord
  2
DOUBLE_DASH_DOT
 70
     0
  3
Double-Dash Dot __ __ . __ __ . __ __ . __ _
 72
    65
 73
     6
 40
0.4398
 49
0.24
 74
     0
 49
-0.06
 74
     0
 49
0.0098
 74
     0
 49
-0.06
 74
     0
 49
0.01
 74
     0
 49
-0.06
 74
     0
  0
LTYPE
  5
44
330
5
100
AcDbSymbolTableRecord
100
AcDbLinetypeTableRecord
  2
DASH_TRIPLE_DOT
 70
     0
  3
Dash Triple-Dot _ . . . _ . . . _ . . . _
 72
    65
 73
     8
 40
0.51
 49
0.24
 74
     0
 49
-0.06
 74
     0
 49
0.01
 74
     0
 49
-0.06
 74
     0
 49
0.01
 74
     0
 49
-0.06
 74
     0
 49
0.01
 74
     0
 49
-0.06
 74
     0
  0
LTYPE
  5
45
330
5
100
AcDbSymbolTableRecord
100
AcDbLinetypeTableRecord
  2
DASHED
 70
     0
  3
Dashed __ __ __ __ __ __ __ __ __ __ __ __ __ _
 72
    65
 73
     2
 40
0.2067
 49
0.1654
 74
     0
 49
-0.0413
 74
     0
  0
LTYPE
  5
46
330
5
100
AcDbSymbolTableRecord
100
AcDbLinetypeTableRecord
  2
DASH_DOUBLE_DOT
 70
     0
  3
Dash Double-Dot __ . . __ . . __ . . __ . .
 72
    65
 73
     6
 40
0.4398
 49
0.24
 74
     0
 49
-0.06
 74
     0
 49
0.0098
 74
     0
 49
-0.06
 74
     0
 49
0.01
 74
     0
 49
-0.06
 74
     0
  0
LTYPE
  5
47
330
5
100
AcDbSymbolTableRecord
100
AcDbLinetypeTableRecord
  2
DASHED_SPACE
 70
     0
  3
Dashed Space __ __ __ __ __ __ __ __ __ __ __ _
 72
    65
 73
     2
 40
0.2067
 49
0.1654
 74
     0
 49
-0.0413
 74
     0
  0
LTYPE
  5
48
330
5
100
AcDbSymbolTableRecord
100
AcDbLinetypeTableRecord
  2
DOTTED
 70
     0
  3
Dotted . . . . . . . . . . . . . . . . . . . . 
 72
    65
 73
     2
 40
0.0482
 49
0.0069
 74
     0
 49
-0.0413
 74
     0
  0
LTYPE
  5
49
330
5
100
AcDbSymbolTableRecord
100
AcDbLinetypeTableRecord
  2
DOUBLE_DASH_CHAIN
 70
     0
  3
Double-Dash Chain ______  __  __  ______  __  _
 72
    65
 73
     6
 40
1.240299999999999
 49
0.6614
 74
     0
 49
-0.0827
 74
     0
 49
0.1654
 74
     0
 49
-0.0827
 74
     0
 49
0.1654
 74
     0
 49
-0.0827
 74
     0
  0
LTYPE
  5
4B
330
5
100
AcDbSymbolTableRecord
100
AcDbLinetypeTableRecord
  2
DOUBLE_DASH_DOUBLE_DOT
 70
     0
  3
Double-Dash Double-dot _ _ . . _ _ . . _
 72
    65
 73
     8
 40
0.7400000000000001
 49
0.24
 74
     0
 49
-0.06
 74
     0
 49
0.24
 74
     0
 49
-0.06
 74
     0
 49
0.01
 74
     0
 49
-0.06
 74
     0
 49
0.01
 74
     0
 49
-0.06
 74
     0
  0
LTYPE
  5
4C
330
5
100
AcDbSymbolTableRecord
100
AcDbLinetypeTableRecord
  2
DOUBLE_DASH_TRIPLE_DOT
 70
     0
  3
Double Dash Triple Dot __ __ . . . __ __ . .
 72
    65
 73
    10
 40
0.8100000000000001
 49
0.24
 74
     0
 49
-0.06
 74
     0
 49
0.24
 74
     0
 49
-0.06
 74
     0
 49
0.01
 74
     0
 49
-0.06
 74
     0
 49
0.01
 74
     0
 49
-0.06
 74
     0
 49
0.01
 74
     0
 49
-0.06
 74
     0
  0
LTYPE
  5
4D
330
5
100
AcDbSymbolTableRecord
100
AcDbLinetypeTableRecord
  2
LONG_DASH_DOTTED
 70
     0
  3
Long Dash Dotted ____ . ____ . ____ . ____ . _
 72
    65
 73
     4
 40
0.3543
 49
0.2362
 74
     0
 49
-0.0295
 74
     0
 49
0.0591
 74
     0
 49
-0.0295
 74
     0
  0
LTYPE
  5
4E
330
5
100
AcDbSymbolTableRecord
100
AcDbLinetypeTableRecord
  2
LONG_DASH_DOUBLE_DOT
 70
     0
  3
Long Dash Double Dot ________  .  .  ________  
 72
    65
 73
     6
 40
0.6799999999999999
 49
0.48
 74
     0
 49
-0.06
 74
     0
 49
0.01
 74
     0
 49
-0.06
 74
     0
 49
0.01
 74
     0
 49
-0.06
 74
     0
  0
LTYPE
  5
4F
330
5
100
AcDbSymbolTableRecord
100
AcDbLinetypeTableRecord
  2
LONG_DASH_TRIPLE_DOT
 70
     0
  3
Long Dash Triple Dot ____ ... ____ ... ____
 72
    65
 73
     8
 40
0.3689
 49
0.2362
 74
     0
 49
-0.0295
 74
     0
 49
0.0049
 74
     0
 49
-0.0295
 74
     0
 49
0.0049
 74
     0
 49
-0.0295
 74
     0
 49
0.0049
 74
     0
 49
-0.0295
 74
     0
  0
LTYPE
  5
50
330
5
100
AcDbSymbolTableRecord
100
AcDbLinetypeTableRecord
  2
BORDER
 70
     0
  3
Border __ __ . __ __ . __ __ . __ __ . __ __ .
 72
    65
 73
     6
 40
1.75
 49
0.5
 74
     0
 49
-0.25
 74
     0
 49
0.5
 74
     0
 49
-0.25
 74
     0
 49
0.0
 74
     0
 49
-0.25
 74
     0
  0
LTYPE
  5
51
330
5
100
AcDbSymbolTableRecord
100
AcDbLinetypeTableRecord
  2
BORDER2
 70
     0
  3
Border (.5x) __.__.__.__.__.__.__.__.__.__.__.
 72
    65
 73
     6
 40
0.875
 49
0.25
 74
     0
 49
-0.125
 74
     0
 49
0.25
 74
     0
 49
-0.125
 74
     0
 49
0.0
 74
     0
 49
-0.125
 74
     0
  0
LTYPE
  5
52
330
5
100
AcDbSymbolTableRecord
100
AcDbLinetypeTableRecord
  2
BORDERX2
 70
     0
  3
Border (2x) ____  ____  .  ____  ____  .  ___
 72
    65
 73
     6
 40
3.5
 49
1.0
 74
     0
 49
-0.5
 74
     0
 49
1.0
 74
     0
 49
-0.5
 74
     0
 49
0.0
 74
     0
 49
-0.5
 74
     0
  0
LTYPE
  5
53
330
5
100
AcDbSymbolTableRecord
100
AcDbLinetypeTableRecord
  2
CENTER
 70
     0
  3
Center ____ _ ____ _ ____ _ ____ _ ____ _ ____
 72
    65
 73
     4
 40
2.0
 49
1.25
 74
     0
 49
-0.25
 74
     0
 49
0.25
 74
     0
 49
-0.25
 74
     0
  0
LTYPE
  5
54
330
5
100
AcDbSymbolTableRecord
100
AcDbLinetypeTableRecord
  2
CENTER2
 70
     0
  3
Center (.5x) ___ _ ___ _ ___ _ ___ _ ___ _ ___
 72
    65
 73
     4
 40
1.125
 49
0.75
 74
     0
 49
-0.125
 74
     0
 49
0.125
 74
     0
 49
-0.125
 74
     0
  0
LTYPE
  5
55
330
5
100
AcDbSymbolTableRecord
100
AcDbLinetypeTableRecord
  2
CENTERX2
 70
     0
  3
Center (2x) ________  __  ________  __  _____
 72
    65
 73
     4
 40
4.0
 49
2.5
 74
     0
 49
-0.5
 74
     0
 49
0.5
 74
     0
 49
-0.5
 74
     0
  0
LTYPE
  5
56
330
5
100
AcDbSymbolTableRecord
100
AcDbLinetypeTableRecord
  2
DASHDOT2
 70
     0
  3
Dash dot (.5x) _._._._._._._._._._._._._._._.
 72
    65
 73
     4
 40
0.5
 49
0.25
 74
     0
 49
-0.125
 74
     0
 49
0.0
 74
     0
 49
-0.125
 74
     0
  0
LTYPE
  5
57
330
5
100
AcDbSymbolTableRecord
100
AcDbLinetypeTableRecord
  2
DASHDOTX2
 70
     0
  3
Dash dot (2x) ____  .  ____  .  ____  .  ___
 72
    65
 73
     4
 40
2.0
 49
1.0
 74
     0
 49
-0.5
 74
     0
 49
0.0
 74
     0
 49
-0.5
 74
     0
  0
LTYPE
  5
59
330
5
100
AcDbSymbolTableRecord
100
AcDbLinetypeTableRecord
  2
DASHED2
 70
     0
  3
Dashed (.5x) _ _ _ _ _ _ _ _ _ _ _ _ _ _ _ _ _
 72
    65
 73
     2
 40
0.375
 49
0.25
 74
     0
 49
-0.125
 74
     0
  0
LTYPE
  5
5A
330
5
100
AcDbSymbolTableRecord
100
AcDbLinetypeTableRecord
  2
DASHEDX2
 70
     0
  3
Dashed (2x) ____  ____  ____  ____  ____  ___
 72
    65
 73
     2
 40
1.5
 49
1.0
 74
     0
 49
-0.5
 74
     0
  0
LTYPE
  5
5B
330
5
100
AcDbSymbolTableRecord
100
AcDbLinetypeTableRecord
  2
DIVIDE
 70
     0
  3
Divide ____ . . ____ . . ____ . . ____ . . ____
 72
    65
 73
     6
 40
1.25
 49
0.5
 74
     0
 49
-0.25
 74
     0
 49
0.0
 74
     0
 49
-0.25
 74
     0
 49
0.0
 74
     0
 49
-0.25
 74
     0
  0
LTYPE
  5
5C
330
5
100
AcDbSymbolTableRecord
100
AcDbLinetypeTableRecord
  2
DIVIDE2
 70
     0
  3
Divide (.5x) __..__..__..__..__..__..__..__.._
 72
    65
 73
     6
 40
0.625
 49
0.25
 74
     0
 49
-0.125
 74
     0
 49
0.0
 74
     0
 49
-0.125
 74
     0
 49
0.0
 74
     0
 49
-0.125
 74
     0
  0
LTYPE
  5
5D
330
5
100
AcDbSymbolTableRecord
100
AcDbLinetypeTableRecord
  2
DIVIDEX2
 70
     0
  3
Divide (2x) ________  .  .  ________  .  .  _
 72
    65
 73
     6
 40
2.5
 49
1.0
 74
     0
 49
-0.5
 74
     0
 49
0.0
 74
     0
 49
-0.5
 74
     0
 49
0.0
 74
     0
 49
-0.5
 74
     0
  0
LTYPE
  5
5E
330
5
100
AcDbSymbolTableRecord
100
AcDbLinetypeTableRecord
  2
DOT
 70
     0
  3
Dot . . . . . . . . . . . . . . . . . . . . . .
 72
    65
 73
     2
 40
0.25
 49
0.0
 74
     0
 49
-0.25
 74
     0
  0
LTYPE
  5
5F
330
5
100
AcDbSymbolTableRecord
100
AcDbLinetypeTableRecord
  2
DOT2
 70
     0
  3
Dot (.5x) .....................................
 72
    65
 73
     2
 40
0.125
 49
0.0
 74
     0
 49
-0.125
 74
     0
  0
LTYPE
  5
60
330
5
100
AcDbSymbolTableRecord
100
AcDbLinetypeTableRecord
  2
DOTX2
 70
     0
  3
Dot (2x) .  .  .  .  .  .  .  .  .  .  .  .  . 
 72
    65
 73
     2
 40
0.5
 49
0.0
 74
     0
 49
-0.5
 74
     0
  0
LTYPE
  5
61
330
5
100
AcDbSymbolTableRecord
100
AcDbLinetypeTableRecord
  2
HIDDEN
 70
     0
  3
Hidden __ __ __ __ __ __ __ __ __ __ __ __ __ _
 72
    65
 73
     2
 40
0.375
 49
0.25
 74
     0
 49
-0.125
 74
     0
  0
LTYPE
  5
62
330
5
100
AcDbSymbolTableRecord
100
AcDbLinetypeTableRecord
  2
HIDDEN2
 70
     0
  3
Hidden (.5x) _ _ _ _ _ _ _ _ _ _ _ _ _ _ _ _ _
 72
    65
 73
     2
 40
0.1875
 49
0.125
 74
     0
 49
-0.0625
 74
     0
  0
LTYPE
  5
63
330
5
100
AcDbSymbolTableRecord
100
AcDbLinetypeTableRecord
  2
HIDDENX2
 70
     0
  3
Hidden (2x) ____ ____ ____ ____ ____ ____ ____
 72
    65
 73
     2
 40
0.75
 49
0.5
 74
     0
 49
-0.25
 74
     0
  0
LTYPE
  5
64
330
5
100
AcDbSymbolTableRecord
100
AcDbLinetypeTableRecord
  2
PHANTOM
 70
     0
  3
Phantom ______  __  __  ______  __  __  ______
 72
    65
 73
     6
 40
2.5
 49
1.25
 74
     0
 49
-0.25
 74
     0
 49
0.25
 74
     0
 49
-0.25
 74
     0
 49
0.25
 74
     0
 49
-0.25
 74
     0
  0
LTYPE
  5
65
330
5
100
AcDbSymbolTableRecord
100
AcDbLinetypeTableRecord
  2
PHANTOM2
 70
     0
  3
Phantom (.5x) ___ _ _ ___ _ _ ___ _ _ ___ _ _
 72
    65
 73
     6
 40
1.25
 49
0.625
 74
     0
 49
-0.125
 74
     0
 49
0.125
 74
     0
 49
-0.125
 74
     0
 49
0.125
 74
     0
 49
-0.125
 74
     0
  0
LTYPE
  5
66
330
5
100
AcDbSymbolTableRecord
100
AcDbLinetypeTableRecord
  2
PHANTOMX2
 70
     0
  3
Phantom (2x) ____________    ____    ____   _
 72
    65
 73
     6
 40
5.0
 49
2.5
 74
     0
 49
-0.5
 74
     0
 49
0.5
 74
     0
 49
-0.5
 74
     0
 49
0.5
 74
     0
 49
-0.5
 74
     0
  0
LTYPE
  5
67
330
5
100
AcDbSymbolTableRecord
100
AcDbLinetypeTableRecord
  2
ACAD_ISO02W100
 70
     0
  3
ISO dash __ __ __ __ __ __ __ __ __ __ __ __ __
 72
    65
 73
     2
 40
0.59
 49
0.47
 74
     0
 49
-0.12
 74
     0
  0
LTYPE
  5
68
330
5
100
AcDbSymbolTableRecord
100
AcDbLinetypeTableRecord
  2
ACAD_ISO03W100
 70
     0
  3
ISO dash space __    __    __    __    __    __
 72
    65
 73
     2
 40
1.179999999999999
 49
0.47
 74
     0
 49
-0.71
 74
     0
  0
LTYPE
  5
69
330
5
100
AcDbSymbolTableRecord
100
AcDbLinetypeTableRecord
  2
ACAD_ISO04W100
 70
     0
  3
ISO long-dash dot ____ . ____ . ____ . ____ . _
 72
    65
 73
     4
 40
1.179999999999999
 49
0.9399999999999998
 74
     0
 49
-0.12
 74
     0
 49
0.0
 74
     0
 49
-0.12
 74
     0
  0
LTYPE
  5
6A
330
5
100
AcDbSymbolTableRecord
100
AcDbLinetypeTableRecord
  2
ACAD_ISO05W100
 70
     0
  3
ISO long-dash double-dot ____ .. ____ .. ____ .
 72
    65
 73
     6
 40
1.299999999999999
 49
0.9399999999999998
 74
     0
 49
-0.12
 74
     0
 49
0.0
 74
     0
 49
-0.12
 74
     0
 49
0.0
 74
     0
 49
-0.12
 74
     0
  0
LTYPE
  5
6B
330
5
100
AcDbSymbolTableRecord
100
AcDbLinetypeTableRecord
  2
ACAD_ISO06W100
 70
     0
  3
ISO long-dash triple-dot ____ ... ____ ... ____
 72
    65
 73
     8
 40
1.419999999999999
 49
0.9399999999999998
 74
     0
 49
-0.12
 74
     0
 49
0.0
 74
     0
 49
-0.12
 74
     0
 49
0.0
 74
     0
 49
-0.12
 74
     0
 49
0.0
 74
     0
 49
-0.12
 74
     0
  0
LTYPE
  5
6C
330
5
100
AcDbSymbolTableRecord
100
AcDbLinetypeTableRecord
  2
ACAD_ISO07W100
 70
     0
  3
ISO dot . . . . . . . . . . . . . . . . . . . .
 72
    65
 73
     2
 40
0.12
 49
0.0
 74
     0
 49
-0.12
 74
     0
  0
LTYPE
  5
6D
330
5
100
AcDbSymbolTableRecord
100
AcDbLinetypeTableRecord
  2
ACAD_ISO08W100
 70
     0
  3
ISO long-dash short-dash ____ __ ____ __ ____ _
 72
    65
 73
     4
 40
0.95
 49
0.47
 74
     0
 49
-0.12
 74
     0
 49
0.24
 74
     0
 49
-0.12
 74
     0
  0
LTYPE
  5
6E
330
5
100
AcDbSymbolTableRecord
100
AcDbLinetypeTableRecord
  2
ACAD_ISO09W100
 70
     0
  3
ISO long-dash double-short-dash ____ __ __ ____
 72
    65
 73
     6
 40
1.31
 49
0.47
 74
     0
 49
-0.12
 74
     0
 49
0.24
 74
     0
 49
-0.12
 74
     0
 49
0.24
 74
     0
 49
-0.12
 74
     0
  0
LTYPE
  5
6F
330
5
100
AcDbSymbolTableRecord
100
AcDbLinetypeTableRecord
  2
ACAD_ISO10W100
 70
     0
  3
ISO dash dot __ . __ . __ . __ . __ . __ . __ .
 72
    65
 73
     4
 40
0.71
 49
0.47
 74
     0
 49
-0.12
 74
     0
 49
0.0
 74
     0
 49
-0.12
 74
     0
  0
LTYPE
  5
70
330
5
100
AcDbSymbolTableRecord
100
AcDbLinetypeTableRecord
  2
ACAD_ISO11W100
 70
     0
  3
ISO double-dash dot __ __ . __ __ . __ __ . __ 
 72
    65
 73
     6
 40
1.299999999999999
 49
0.47
 74
     0
 49
-0.12
 74
     0
 49
0.47
 74
     0
 49
-0.12
 74
     0
 49
0.0
 74
     0
 49
-0.12
 74
     0
  0
LTYPE
  5
71
330
5
100
AcDbSymbolTableRecord
100
AcDbLinetypeTableRecord
  2
ACAD_ISO12W100
 70
     0
  3
ISO dash double-dot __ . . __ . . __ . . __ . .
 72
    65
 73
     6
 40
0.8299999999999998
 49
0.47
 74
     0
 49
-0.12
 74
     0
 49
0.0
 74
     0
 49
-0.12
 74
     0
 49
0.0
 74
     0
 49
-0.12
 74
     0
  0
LTYPE
  5
72
330
5
100
AcDbSymbolTableRecord
100
AcDbLinetypeTableRecord
  2
ACAD_ISO13W100
 70
     0
  3
ISO double-dash double-dot __ __ . . __ __ . . 
 72
    65
 73
     8
 40
1.419999999999999
 49
0.47
 74
     0
 49
-0.12
 74
     0
 49
0.47
 74
     0
 49
-0.12
 74
     0
 49
0.0
 74
     0
 49
-0.12
 74
     0
 49
0.0
 74
     0
 49
-0.12
 74
     0
  0
LTYPE
  5
73
330
5
100
AcDbSymbolTableRecord
100
AcDbLinetypeTableRecord
  2
ACAD_ISO14W100
 70
     0
  3
ISO dash triple-dot __ . . . __ . . . __ . . . 
 72
    65
 73
     8
 40
0.95
 49
0.47
 74
     0
 49
-0.12
 74
     0
 49
0.0
 74
     0
 49
-0.12
 74
     0
 49
0.0
 74
     0
 49
-0.12
 74
     0
 49
0.0
 74
     0
 49
-0.12
 74
     0
  0
LTYPE
  5
74
330
5
100
AcDbSymbolTableRecord
100
AcDbLinetypeTableRecord
  2
ACAD_ISO15W100
 70
     0
  3
ISO double-dash triple-dot __ __ . . . __ __ . 
 72
    65
 73
    10
 40
1.539999999999999
 49
0.47
 74
     0
 49
-0.12
 74
     0
 49
0.47
 74
     0
 49
-0.12
 74
     0
 49
0.0
 74
     0
 49
-0.12
 74
     0
 49
0.0
 74
     0
 49
-0.12
 74
     0
 49
0.0
 74
     0
 49
-0.12
 74
     0
  0
LTYPE
  5
77
330
5
100
AcDbSymbolTableRecord
100
AcDbLinetypeTableRecord
  2
FENCELINE1
 70
     0
  3
Fenceline circle ----0-----0----0-----0----0---
 72
    65
 73
     4
 40
1.45
 49
0.25
 74
     0
 49
-0.1
 74
     4
 75
   133
340
76
 46
0.1
 50
0.0
 44
-0.1
 45
0.0
 49
-0.1
 74
     0
 49
1.0
 74
     0
  0
LTYPE
  5
78
330
5
100
AcDbSymbolTableRecord
100
AcDbLinetypeTableRecord
  2
FENCELINE2
 70
     0
  3
Fenceline square ----[]-----[]----[]-----[]----
 72
    65
 73
     4
 40
1.45
 49
0.25
 74
     0
 49
-0.1
 74
     4
 75
   132
340
76
 46
0.1
 50
0.0
 44
-0.1
 45
0.0
 49
-0.1
 74
     0
 49
1.0
 74
     0
  0
LTYPE
  5
79
330
5
100
AcDbSymbolTableRecord
100
AcDbLinetypeTableRecord
  2
TRACKS
 70
     0
  3
Tracks -|-|-|-|-|-|-|-|-|-|-|-|-|-|-|-|-|-|-|-|
 72
    65
 73
     2
 40
0.3
 49
0.15
 74
     4
 75
   130
340
76
 46
0.25
 50
0.0
 44
0.0
 45
0.0
 49
0.15
 74
     0
  0
LTYPE
  5
7A
330
5
100
AcDbSymbolTableRecord
100
AcDbLinetypeTableRecord
  2
BATTING
 70
     0
  3
Batting SSSSSSSSSSSSSSSSSSSSSSSSSSSSSSSSSSSSSSS
 72
    65
 73
     4
 40
0.4001000000000001
 49
0.0001
 74
     0
 49
-0.1
 74
     4
 75
   134
340
76
 46
0.1
 50
0.0
 44
-0.1
 45
0.0
 49
-0.2
 74
     4
 75
   134
340
76
 46
0.1
 50
180.0
 44
0.1
 45
0.0
 49
-0.1
 74
     0
  0
LTYPE
  5
7B
330
5
100
AcDbSymbolTableRecord
100
AcDbLinetypeTableRecord
  2
HOT_WATER_SUPPLY
 70
     0
  3
Hot water supply ---- HW ---- HW ---- HW ----
 72
    65
 73
     3
 40
0.9
 49
0.5
 74
     0
 49
-0.2
 74
     2
 75
     0
340
26
 46
0.1
 50
0.0
 44
-0.1
 45
-0.05
  9
HW
 49
-0.2
 74
     0
  0
LTYPE
  5
7C
330
5
100
AcDbSymbolTableRecord
100
AcDbLinetypeTableRecord
  2
GAS_LINE
 70
     0
  3
Gas line ----GAS----GAS----GAS----GAS----GAS---
 72
    65
 73
     3
 40
0.95
 49
0.5
 74
     0
 49
-0.2
 74
     2
 75
     0
340
26
 46
0.1
 50
0.0
 44
-0.1
 45
-0.05
  9
GAS
 49
-0.25
 74
     0
  0
LTYPE
  5
7D
330
5
100
AcDbSymbolTableRecord
100
AcDbLinetypeTableRecord
  2
ZIGZAG
 70
     0
  3
Zig zag /\/\/\/\/\/\/\/\/\/\/\/\/\/\/\/\/\/\/\/
 72
    65
 73
     4
 40
0.8001000000000001
 49
0.0001
 74
     0
 49
-0.2
 74
     4
 75
   131
340
76
 46
0.2
 50
0.0
 44
-0.2
 45
0.0
 49
-0.4
 74
     4
 75
   131
340
76
 46
0.2
 50
180.0
 44
0.2
 45
0.0
 49
-0.2
 74
     0
  0
ENDTAB
  0
TABLE
  2
LAYER
  5
2
330
0
100
AcDbSymbolTable
 70
    74
  0
LAYER
  5
25
330
2
100
AcDbSymbolTableRecord
100
AcDbLayerTableRecord
  2
0
 70
     0
 62
     7
  6
Continuous
370
    -3
390
F
  0
LAYER
  5
92
330
2
100
AcDbSymbolTableRecord
100
AcDbLayerTableRecord
  2
Bemaßungen(TC_020513_DIN)
 70
     0
 62
     7
  6
Continuous
370
    25
390
F
  0
LAYER
  5
98
330
2
100
AcDbSymbolTableRecord
100
AcDbLayerTableRecord
  2
Bruchlinien(TC_020513_DIN)
 70
     0
 62
     7
  6
Continuous
370
    25
390
F
  0
LAYER
  5
A4
330
2
100
AcDbSymbolTableRecord
100
AcDbLayerTableRecord
  2
Mittellinie(TC_020513_DIN)
 70
     0
 62
     7
  6
DASH_DOT
370
    25
390
F
  0
LAYER
  5
AF
330
2
100
AcDbSymbolTableRecord
100
AcDbLayerTableRecord
  2
Schraffur
 70
     0
 62
   179
  6
Continuous
370
     9
390
F
  0
LAYER
  5
B1
330
2
100
AcDbSymbolTableRecord
100
AcDbLayerTableRecord
  2
Sichtbare Kanten(TC_020513_DIN)
 70
     0
 62
     7
  6
Continuous
370
    50
390
F
  0
LAYER
  5
B4
330
2
100
AcDbSymbolTableRecord
100
AcDbLayerTableRecord
  2
Skizziergeometrie(ISO)
 70
     0
 62
     7
  6
Continuous
370
    50
390
F
  0
LAYER
  5
B7
330
2
100
AcDbSymbolTableRecord
100
AcDbLayerTableRecord
  2
Skizzierlinie(TC_020513_DIN)
 70
     1
 62
     3
  6
Continuous
370
    18
390
F
  0
LAYER
  5
BC
330
2
100
AcDbSymbolTableRecord
100
AcDbLayerTableRecord
  2
Symbole(ISO)
 70
     0
 62
     7
  6
Continuous
370
    25
390
F
  0
LAYER
  5
2F6
330
2
100
AcDbSymbolTableRecord
100
AcDbLayerTableRecord
  2
Defpoints
 70
     0
 62
     7
  6
Continuous
290
     0
370
    -3
390
F
  0
ENDTAB
  0
TABLE
  2
STYLE
  5
3
330
0
100
AcDbSymbolTable
 70
    17
  0
STYLE
  5
26
330
3
100
AcDbSymbolTableRecord
100
AcDbTextStyleTableRecord
  2
Standard
 70
     0
 40
0.0
 41
1.0
 50
0.0
 71
     0
 42
0.2
  3
ARIAL.TTF
  4

1001
ACAD
1000
Arial
1071
      256
  0
STYLE
  5
76
330
3
100
AcDbSymbolTableRecord
100
AcDbTextStyleTableRecord
  2

 70
     1
 40
0.0
 41
1.0
 50
0.0
 71
     0
 42
0.2
  3
ltypeshp.shx
  4

  0
STYLE
  5
C6
330
3
100
AcDbSymbolTableRecord
100
AcDbTextStyleTableRecord
  2
Aktuell-BSI
 70
     0
 40
0.0
 41
1.0
 50
0.0
 71
     0
 42
0.2
  3
ARIAL.TTF
  4

1001
ACAD
1000
Arial
1071
      256
  0
STYLE
  5
C7
330
3
100
AcDbSymbolTableRecord
100
AcDbTextStyleTableRecord
  2
Kopie von TC 5 mm
 70
     0
 40
0.0
 41
1.199999928474426
 50
0.0
 71
     0
 42
0.2
  3
ARIAL.TTF
  4

1001
ACAD
1000
Arial
1071
      256
  0
STYLE
  5
C8
330
3
100
AcDbSymbolTableRecord
100
AcDbTextStyleTableRecord
  2
STANDARD-TC_020513_DIN
 70
     0
 40
0.0
 41
1.0
 50
0.0
 71
     0
 42
0.2
  3
ARIAL.TTF
  4

1001
ACAD
1000
Arial
1071
      256
  0
STYLE
  5
C9
330
3
100
AcDbSymbolTableRecord
100
AcDbTextStyleTableRecord
  2
STANDARD-TC_020513_DINGroßer Text
 70
     0
 40
0.0
 41
1.0
 50
0.0
 71
     0
 42
0.2
  3
ARIAL.TTF
  4

1001
ACAD
1000
Arial
1071
      256
  0
STYLE
  5
CA
330
3
100
AcDbSymbolTableRecord
100
AcDbTextStyleTableRecord
  2
STANDARD-TC_020513_DINNach Layer
 70
     0
 40
0.0
 41
1.0
 50
0.0
 71
     0
 42
0.2
  3
ARIAL.TTF
  4

1001
ACAD
1000
Arial
1071
      256
  0
STYLE
  5
CB
330
3
100
AcDbSymbolTableRecord
100
AcDbTextStyleTableRecord
  2
TC 2_5 mm
 70
     0
 40
0.0
 41
0.899999976158142
 50
0.0
 71
     0
 42
0.2
  3
ARIAL.TTF
  4

1001
ACAD
1000
Arial
1071
      256
  0
STYLE
  5
CC
330
3
100
AcDbSymbolTableRecord
100
AcDbTextStyleTableRecord
  2
TC 3_5 mm
 70
     0
 40
0.0
 41
0.7999999523162842
 50
0.0
 71
     0
 42
0.2
  3
ARIAL.TTF
  4

1001
ACAD
1000
Arial
1071
      256
  0
STYLE
  5
CD
330
3
100
AcDbSymbolTableRecord
100
AcDbTextStyleTableRecord
  2
TC 3_5 mmGroßer Text
 70
     0
 40
0.0
 41
0.899999976158142
 50
0.0
 71
     0
 42
0.2
  3
ARIAL.TTF
  4

1001
ACAD
1000
Arial
1071
      256
  0
STYLE
  5
CE
330
3
100
AcDbSymbolTableRecord
100
AcDbTextStyleTableRecord
  2
TC 3_5 mmNach Layer
 70
     0
 40
0.0
 41
0.899999976158142
 50
0.0
 71
     0
 42
0.2
  3
ARIAL.TTF
  4

1001
ACAD
1000
Arial
1071
      256
  0
STYLE
  5
CF
330
3
100
AcDbSymbolTableRecord
100
AcDbTextStyleTableRecord
  2
TC 4 mm
 70
     0
 40
0.0
 41
1.199999928474426
 50
0.0
 71
     0
 42
0.2
  3
ARIAL.TTF
  4

1001
ACAD
1000
Arial
1071
      256
  0
STYLE
  5
D0
330
3
100
AcDbSymbolTableRecord
100
AcDbTextStyleTableRecord
  2
TC 5 mm
 70
     0
 40
0.0
 41
0.899999976158142
 50
0.0
 71
     0
 42
0.2
  3
ARIAL.TTF
  4

1001
ACAD
1000
Arial
1071
      256
  0
STYLE
  5
D1
330
3
100
AcDbSymbolTableRecord
100
AcDbTextStyleTableRecord
  2
TC 5 mmNach Layer
 70
     0
 40
0.0
 41
0.899999976158142
 50
0.0
 71
     0
 42
0.2
  3
ARIAL.TTF
  4

1001
ACAD
1000
Arial
1071
      256
  0
STYLE
  5
D2
330
3
100
AcDbSymbolTableRecord
100
AcDbTextStyleTableRecord
  2
TC 7 mm
 70
     0
 40
0.0
 41
0.899999976158142
 50
0.0
 71
     0
 42
0.2
  3
ARIAL.TTF
  4

1001
ACAD
1000
Arial
1071
      256
  0
STYLE
  5
FB
330
3
100
AcDbSymbolTableRecord
100
AcDbTextStyleTableRecord
  2
TC 2_5 mm-ISOCPEUR
 70
     0
 40
0.0
 41
0.899999976158142
 50
0.0
 71
     0
 42
0.2
  3
isocpeur.ttf
  4

1001
ACAD
1000
ISOCPEUR
1071
      256
  0
STYLE
  5
FF
330
3
100
AcDbSymbolTableRecord
100
AcDbTextStyleTableRecord
  2
TC 3_5 mm-ISOCPEUR
 70
     0
 40
0.0
 41
0.899999976158142
 50
0.0
 71
     0
 42
0.2
  3
isocpeur.ttf
  4

1001
ACAD
1000
ISOCPEUR
1071
      256
  0
ENDTAB
  0
TABLE
  2
VIEW
  5
6
330
0
100
AcDbSymbolTable
 70
     0
  0
ENDTAB
  0
TABLE
  2
UCS
  5
7
330
0
100
AcDbSymbolTable
 70
     0
  0
ENDTAB
  0
TABLE
  2
APPID
  5
9
330
0
100
AcDbSymbolTable
 70
     1
  0
APPID
  5
27
330
9
100
AcDbSymbolTableRecord
100
AcDbRegAppTableRecord
  2
ACAD
 70
     0
  0
ENDTAB
  0
TABLE
  2
DIMSTYLE
  5
A
330
0
100
AcDbSymbolTable
 70
    17
100
AcDbDimStyleTable
 71
     2
340
D3
340
3F
  0
DIMSTYLE
105
3F
330
A
100
AcDbSymbolTableRecord
100
AcDbDimStyleTableRecord
  2
Standard
 70
     0
340
26
  0
DIMSTYLE
105
D3
102
{ACAD_REACTORS
330
2F5
330
3B1
330
476
330
53B
102
}
330
A
100
AcDbSymbolTableRecord
100
AcDbDimStyleTableRecord
  2
STANDARD-TC_020513_DIN
 70
     0
 41
2.5
 42
1.0
 43
6.0
 44
2.0
 45
0.00000001
 46
10.0
 73
     0
 74
     0
 77
     1
 78
    12
 79
     3
140
3.5
143
0.03937
147
0.8
171
     3
172
     1
176
     7
177
     7
178
     7
271
     2
272
     2
274
     3
278
    44
340
C6
371
    25
372
    25
  0
DIMSTYLE
105
D4
330
A
100
AcDbSymbolTableRecord
100
AcDbDimStyleTableRecord
  2
STANDARD-TC_020513_DIN$7
 70
     0
 41
2.5
 42
1.0
 43
6.0
 44
2.0
 45
0.00000001
 46
10.0
 73
     0
 74
     0
 77
     1
 78
    12
 79
     3
140
3.5
143
0.03937
147
0.8
171
     3
172
     1
176
     7
177
     7
178
     7
271
     2
272
     2
274
     3
278
    44
340
C6
371
    25
372
    25
  0
DIMSTYLE
105
D5
330
A
100
AcDbSymbolTableRecord
100
AcDbDimStyleTableRecord
  2
STANDARD-TC_020513_DINGroßer Text
 70
     0
 41
5.0
 42
0.0
 43
6.0
 44
3.174999999999999
 45
0.00000001
 46
10.0
 73
     0
 74
     0
 77
     1
140
5.25
143
0.03937
146
0.6666666666666666
147
0.8
171
     3
172
     1
176
     7
177
     7
178
     7
271
     2
272
     2
274
     3
278
    44
340
C9
371
    25
372
    25
  0
DIMSTYLE
105
D6
330
A
100
AcDbSymbolTableRecord
100
AcDbDimStyleTableRecord
  2
STANDARD-TC_020513_DINGroßer Text$7
 70
     0
 41
5.0
 42
0.0
 43
6.0
 44
3.174999999999999
 45
0.00000001
 46
10.0
 73
     0
 74
     0
 77
     1
140
5.25
143
0.03937
146
0.6666666666666666
147
0.8
171
     3
172
     1
176
     7
177
     7
178
     7
271
     2
272
     2
274
     3
278
    44
340
C9
371
    25
372
    25
  0
DIMSTYLE
105
D7
330
A
100
AcDbSymbolTableRecord
100
AcDbDimStyleTableRecord
  2
Teccon Kiel Stil
 70
     0
 41
2.5
 42
0.0
 43
7.0
 44
2.0
 45
0.00000001
 46
10.0
 73
     0
 74
     0
 77
     1
 78
    12
 79
     3
140
3.5
143
0.03937
147
1.0
171
     3
172
     1
176
     7
177
     7
178
     7
179
     1
271
     1
272
     2
274
     3
278
    44
340
CC
371
    25
372
    25
  0
DIMSTYLE
105
D8
330
A
100
AcDbSymbolTableRecord
100
AcDbDimStyleTableRecord
  2
Teccon Kiel Stil$7
 70
     0
 41
2.5
 42
0.0
 43
7.0
 44
2.0
 45
0.00000001
 46
10.0
 73
     0
 74
     0
 77
     1
 78
    12
 79
     3
140
3.5
143
0.03937
147
1.0
171
     3
172
     1
176
     7
177
     7
178
     7
179
     1
271
     1
272
     2
274
     3
278
    44
340
CC
371
    25
372
    25
  0
DIMSTYLE
105
D9
330
A
100
AcDbSymbolTableRecord
100
AcDbDimStyleTableRecord
  2
Teccon Kiel StilGroßer Text
 70
     0
 41
5.0
 42
0.0
 43
7.0
 44
2.0
 45
0.00000001
 46
10.0
 73
     0
 74
     0
 77
     1
 78
    12
 79
     3
140
5.25
143
0.03937
146
0.6666666666666666
147
1.0
171
     3
172
     1
176
     7
177
     7
178
     7
179
     1
271
     1
272
     2
274
     3
278
    44
340
CD
371
    25
372
    25
  0
DIMSTYLE
105
DA
330
A
100
AcDbSymbolTableRecord
100
AcDbDimStyleTableRecord
  2
Teccon Kiel StilGroßer Text$7
 70
     0
 41
5.0
 42
0.0
 43
7.0
 44
2.0
 45
0.00000001
 46
10.0
 73
     0
 74
     0
 77
     1
 78
    12
 79
     3
140
5.25
143
0.03937
146
0.6666666666666666
147
1.0
171
     3
172
     1
176
     7
177
     7
178
     7
179
     1
271
     1
272
     2
274
     3
278
    44
340
CD
371
    25
372
    25
  0
DIMSTYLE
105
DB
330
A
100
AcDbSymbolTableRecord
100
AcDbDimStyleTableRecord
  2
Führungslinie-Ursprungsindikator(ISO)
 70
     0
 41
2.5
340
26
342
DC
  0
DIMSTYLE
105
E3
330
A
100
AcDbSymbolTableRecord
100
AcDbDimStyleTableRecord
  2
Führungslinie-Ursprungsindikator(TC_020513_DIN)
 70
     0
 41
2.5
340
26
342
DC
  0
DIMSTYLE
105
EE
330
A
100
AcDbSymbolTableRecord
100
AcDbDimStyleTableRecord
  2
Führungslinie - Bezugsstelle(ISO)
 70
     0
 41
2.5
340
26
342
DC
  0
DIMSTYLE
105
EF
330
A
100
AcDbSymbolTableRecord
100
AcDbDimStyleTableRecord
  2
Führungslinie - Bezugsstelle(TC_020513_DIN)
 70
     0
 41
2.5
340
26
342
DC
  0
DIMSTYLE
105
F0
330
A
100
AcDbSymbolTableRecord
100
AcDbDimStyleTableRecord
  2
Führungslinie - Punkt(ISO)
 70
     0
 41
2.5
340
26
342
DC
  0
DIMSTYLE
105
F1
330
A
100
AcDbSymbolTableRecord
100
AcDbDimStyleTableRecord
  2
Führungslinie - Punkt(TC_020513_DIN)
 70
     0
 41
2.5
340
26
342
DC
  0
DIMSTYLE
105
F2
330
A
100
AcDbSymbolTableRecord
100
AcDbDimStyleTableRecord
  2
Führungslinie(ISO)
 70
     0
 41
2.5
340
26
342
DC
  0
DIMSTYLE
105
F3
330
A
100
AcDbSymbolTableRecord
100
AcDbDimStyleTableRecord
  2
Führungslinie(TC_020513_DIN)
 70
     0
 41
2.5
340
26
342
DC
  0
ENDTAB
  0
TABLE
  2
BLOCK_RECORD
  5
1
330
0
100
AcDbSymbolTable
 70
    15
  0
BLOCK_RECORD
  5
37
330
1
100
AcDbSymbolTableRecord
100
AcDbBlockTableRecord
  2
*Model_Space
340
3A
  0
BLOCK_RECORD
  5
33
330
1
100
AcDbSymbolTableRecord
100
AcDbBlockTableRecord
  2
*Paper_Space
340
36
  0
BLOCK_RECORD
  5
3B
330
1
100
AcDbSymbolTableRecord
100
AcDbBlockTableRecord
  2
*Paper_Space0
340
3E
  0
BLOCK_RECORD
  5
DC
330
1
100
AcDbSymbolTableRecord
100
AcDbBlockTableRecord
  2
_Closed
340
0
  0
BLOCK_RECORD
  5
E4
330
1
100
AcDbSymbolTableRecord
100
AcDbBlockTableRecord
  2
DatumFilled45
340
0
  0
BLOCK_RECORD
  5
F4
330
1
100
AcDbSymbolTableRecord
100
AcDbBlockTableRecord
  2
DIN 6930 (Toleranzklasse)
340
0
  0
BLOCK_RECORD
  5
105
330
1
100
AcDbSymbolTableRecord
100
AcDbBlockTableRecord
  2
nicht bemaßte Radien
340
0
  0
BLOCK_RECORD
  5
10E
330
1
100
AcDbSymbolTableRecord
100
AcDbBlockTableRecord
  2
DIN ISO 13715 (Werkstückkanten)
340
0
  0
BLOCK_RECORD
  5
132
330
1
100
AcDbSymbolTableRecord
100
AcDbBlockTableRecord
  2
EN 12329 (Chromatierung)
340
0
  0
BLOCK_RECORD
  5
13A
330
1
100
AcDbSymbolTableRecord
100
AcDbBlockTableRecord
  2
ISO 2768 (zul. Abweichung)
340
0
  0
BLOCK_RECORD
  5
143
330
1
100
AcDbSymbolTableRecord
100
AcDbBlockTableRecord
  2
DIN ISO 1302 (Oberflächen)
340
0
  0
BLOCK_RECORD
  5
14B
330
1
100
AcDbSymbolTableRecord
100
AcDbBlockTableRecord
  2
Ränder Ilme Rahmen A4 quer
340
0
102
{BLKREFS
331
155
102
}
  0
BLOCK_RECORD
  5
156
330
1
100
AcDbSymbolTableRecord
100
AcDbBlockTableRecord
  2
Schriftfelder Ilme
340
0
102
{BLKREFS
331
1C9
102
}
  0
BLOCK_RECORD
  5
2F7
330
1
100
AcDbSymbolTableRecord
100
AcDbBlockTableRecord
  2
*D11
340
0
  0
BLOCK_RECORD
  5
3B2
330
1
100
AcDbSymbolTableRecord
100
AcDbBlockTableRecord
  2
*D12
340
0
  0
BLOCK_RECORD
  5
477
330
1
100
AcDbSymbolTableRecord
100
AcDbBlockTableRecord
  2
*D13
340
0
  0
BLOCK_RECORD
  5
53C
330
1
100
AcDbSymbolTableRecord
100
AcDbBlockTableRecord
  2
*D14
340
0
  0
ENDTAB
  0
ENDSEC
  0
SECTION
  2
BLOCKS
  0
BLOCK
  5
38
330
37
100
AcDbEntity
  8
0
100
AcDbBlockBegin
  2
*Model_Space
 70
     0
 10
0.0
 20
0.0
 30
0.0
  3
*Model_Space
  1

  0
ENDBLK
  5
39
330
37
100
AcDbEntity
  8
0
100
AcDbBlockEnd
  0
BLOCK
  5
34
330
33
100
AcDbEntity
 67
     1
  8
0
100
AcDbBlockBegin
  2
*Paper_Space
 70
     0
 10
0.0
 20
0.0
 30
0.0
  3
*Paper_Space
  1

  0
ENDBLK
  5
35
330
33
100
AcDbEntity
 67
     1
  8
0
100
AcDbBlockEnd
  0
BLOCK
  5
3C
330
3B
100
AcDbEntity
 67
     1
  8
0
100
AcDbBlockBegin
  2
*Paper_Space0
 70
     0
 10
0.0
 20
0.0
 30
0.0
  3
*Paper_Space0
  1

  0
ENDBLK
  5
3D
330
3B
100
AcDbEntity
 67
     1
  8
0
100
AcDbBlockEnd
  0
BLOCK
  5
E1
330
DC
100
AcDbEntity
  8
0
100
AcDbBlockBegin
  2
_Closed
 70
     0
 10
0.0
 20
0.0
 30
0.0
  3
_Closed
  1

  0
LINE
  5
DD
330
DC
100
AcDbEntity
  8
0
  6
ByBlock
 62
     0
370
    -2
100
AcDbLine
 10
-1.0
 20
0.1666666666666666
 30
0.0
 11
0.0
 21
0.0
 31
0.0
  0
LINE
  5
DE
330
DC
100
AcDbEntity
  8
0
  6
ByBlock
 62
     0
370
    -2
100
AcDbLine
 10
0.0
 20
0.0
 30
0.0
 11
-1.0
 21
-0.1666666666666666
 31
0.0
  0
LINE
  5
DF
330
DC
100
AcDbEntity
  8
0
  6
ByBlock
 62
     0
370
    -2
100
AcDbLine
 10
-1.0
 20
0.1666666666666666
 30
0.0
 11
-1.0
 21
-0.1666666666666666
 31
0.0
  0
LINE
  5
E0
330
DC
100
AcDbEntity
  8
0
  6
ByBlock
 62
     0
370
    -2
100
AcDbLine
 10
0.0
 20
0.0
 30
0.0
 11
-1.0
 21
0.0
 31
0.0
  0
ENDBLK
  5
E2
330
DC
100
AcDbEntity
  8
0
100
AcDbBlockEnd
  0
BLOCK
  5
E5
330
E4
100
AcDbEntity
  8
0
100
AcDbBlockBegin
  2
DatumFilled45
 70
     0
 10
0.0
 20
0.0
 30
0.0
  3
DatumFilled45
  1

  0
POLYLINE
  5
E7
330
E4
100
AcDbEntity
  8
0
 62
     0
100
AcDb2dPolyline
 66
     1
 10
0.0
 20
0.0
 30
0.0
 70
   128
  0
VERTEX
  5
E8
330
E7
100
AcDbEntity
  8
0
 62
     0
100
AcDbVertex
100
AcDb2dVertex
 10
0.0
 20
1.0
 30
0.0
  0
VERTEX
  5
E9
330
E7
100
AcDbEntity
  8
0
 62
     0
100
AcDbVertex
100
AcDb2dVertex
 10
0.0
 20
-1.0
 30
0.0
  0
VERTEX
  5
EB
330
E7
100
AcDbEntity
  8
0
 62
     0
100
AcDbVertex
100
AcDb2dVertex
 10
-1.0
 20
0.0
 30
0.0
  0
VERTEX
  5
EC
330
E7
100
AcDbEntity
  8
0
 62
     0
100
AcDbVertex
100
AcDb2dVertex
 10
0.0
 20
1.0
 30
0.0
  0
SEQEND
  5
EA
330
E7
100
AcDbEntity
  8
0
 62
     0
  0
SOLID
  5
ED
330
E4
100
AcDbEntity
  8
0
 62
     0
100
AcDbTrace
 10
0.0
 20
1.0
 30
0.0
 11
0.0
 21
-1.0
 31
0.0
 12
-1.0
 22
0.0
 32
0.0
 13
0.0
 23
1.0
 33
0.0
  0
ENDBLK
  5
E6
330
E4
100
AcDbEntity
  8
0
100
AcDbBlockEnd
  0
BLOCK
  5
F5
330
F4
100
AcDbEntity
  8
0
100
AcDbBlockBegin
  2
DIN 6930 (Toleranzklasse)
 70
     2
 10
0.0
 20
0.0
 30
0.0
  3
DIN 6930 (Toleranzklasse)
  1

  0
LINE
  5
F7
330
F4
100
AcDbEntity
  8
Skizziergeometrie(ISO)
100
AcDbLine
 10
-49.99999999999999
 20
24.99999999999996
 30
0.0
 11
0.0
 21
24.99999999999996
 31
0.0
  0
LINE
  5
F8
330
F4
100
AcDbEntity
  8
Skizziergeometrie(ISO)
100
AcDbLine
 10
0.0
 20
24.99999999999996
 30
0.0
 11
0.0
 21
0.0
 31
0.0
  0
LINE
  5
F9
330
F4
100
AcDbEntity
  8
Skizziergeometrie(ISO)
100
AcDbLine
 10
0.0
 20
0.0
 30
0.0
 11
-49.99999999999999
 21
0.0
 31
0.0
  0
LINE
  5
FA
330
F4
100
AcDbEntity
  8
Skizziergeometrie(ISO)
100
AcDbLine
 10
-49.99999999999999
 20
0.0
 30
0.0
 11
-49.99999999999999
 21
24.99999999999996
 31
0.0
  0
MTEXT
  5
FC
102
{ACAD_XDICTIONARY
360
623
102
}
330
F4
100
AcDbEntity
  8
Symbole(ISO)
 62
     7
100
AcDbMText
 10
-25.01617139266887
 20
22.49496284479633
 30
0.0
 40
2.5
 41
49.93534911063455
 71
     5
 72
     1
  1
F\U+00FCr spanlose Bearbeitung
  7
TC 2_5 mm-ISOCPEUR
 73
     1
 44
1.0
1001
ACAD
1000
MTEXTBEGIN
1070
    73
1070
     1
1070
    44
1040
1.0
1070
    74
1070
     0
1000
MTEXTEND
  0
MTEXT
  5
FE
330
F4
100
AcDbEntity
  8
Symbole(ISO)
 62
     7
100
AcDbMText
 10
-24.96550299476308
 20
17.97814514565743
 30
0.0
 40
2.5
 41
49.94698265738096
 71
     5
 72
     1
  1
Allgemeintoleranz
  7
TC 2_5 mm-ISOCPEUR
 73
     1
 44
1.0
1001
ACAD
1000
MTEXTBEGIN
1070
    73
1070
     1
1070
    44
1040
1.0
1070
    74
1070
     0
1000
MTEXTEND
  0
MTEXT
  5
100
330
F4
100
AcDbEntity
  8
Symbole(ISO)
 62
     7
100
AcDbMText
 10
-22.00032990803074
 20
12.97814514565747
 30
0.0
 40
3.499999940395355
 41
28.04641142085023
 71
     6
 72
     1
  1
DIN 6930-
  7
TC 3_5 mm-ISOCPEUR
 73
     1
 44
1.0
1001
ACAD
1000
MTEXTBEGIN
1070
    73
1070
     1
1070
    44
1040
1.0
1070
    74
1070
     0
1000
MTEXTEND
  0
MTEXT
  5
101
330
F4
100
AcDbEntity
  8
Symbole(ISO)
 62
     7
100
AcDbMText
 10
-24.98510412015335
 20
5.018941170990345
 30
0.0
 40
2.5
 41
50.05946813167525
 71
     5
 72
     1
  1
(zul. Abweichung der\PWinkelstellung DIN 6935)
  7
TC 2_5 mm-ISOCPEUR
 73
     2
 44
1.068348169326782
1001
ACAD
1000
MTEXTBEGIN
1070
    73
1070
     2
1070
    44
1040
1.068348169326782
1070
    74
1070
     0
1000
MTEXTEND
  0
ATTDEF
  5
102
330
F4
100
AcDbEntity
  8
Symbole(ISO)
 62
     7
100
AcDbText
 10
-21.93383492465724
 20
11.2184168455105
 30
0.0
 40
3.499999940395355
  1
 
 41
0.899999976158142
  7
TC 3_5 mm-ISOCPEUR
 11
-21.93383492465724
 21
12.96841681570818
 31
0.0
100
AcDbAttributeDefinition
  3
Toleranzklasse
  2
Toleranzklasse
 70
     0
 74
     2
  0
ENDBLK
  5
F6
330
F4
100
AcDbEntity
  8
0
100
AcDbBlockEnd
  0
BLOCK
  5
106
330
105
100
AcDbEntity
  8
0
100
AcDbBlockBegin
  2
nicht bemaßte Radien
 70
     2
 10
0.0
 20
0.0
 30
0.0
  3
nicht bemaßte Radien
  1

  0
LINE
  5
108
330
105
100
AcDbEntity
  8
Skizziergeometrie(ISO)
100
AcDbLine
 10
0.0
 20
0.0
 30
0.0
 11
-50.0
 21
0.0
 31
0.0
  0
LINE
  5
109
330
105
100
AcDbEntity
  8
Skizziergeometrie(ISO)
100
AcDbLine
 10
-50.0
 20
0.0
 30
0.0
 11
-50.0
 21
5.0
 31
0.0
  0
LINE
  5
10A
330
105
100
AcDbEntity
  8
Skizziergeometrie(ISO)
100
AcDbLine
 10
-50.0
 20
5.0
 30
0.0
 11
0.0
 21
5.0
 31
0.0
  0
LINE
  5
10B
330
105
100
AcDbEntity
  8
Skizziergeometrie(ISO)
100
AcDbLine
 10
0.0
 20
5.0
 30
0.0
 11
0.0
 21
0.0
 31
0.0
  0
MTEXT
  5
10C
102
{ACAD_XDICTIONARY
360
625
102
}
330
105
100
AcDbEntity
  8
Symbole(ISO)
 62
     7
100
AcDbMText
 10
-28.98102517277721
 20
2.530616500783118
 30
0.0
 40
2.5
 41
41.95492584233122
 71
     5
 72
     1
  1
Alle nicht bema\U+00DFten Radien R
  7
TC 2_5 mm-ISOCPEUR
 73
     1
 44
1.0
1001
ACAD
1000
MTEXTBEGIN
1070
    73
1070
     1
1070
    44
1040
1.0
1070
    74
1070
     0
1000
MTEXTEND
  0
ATTDEF
  5
10D
330
105
100
AcDbEntity
  8
Symbole(ISO)
 62
     7
100
AcDbText
 10
-4.624331584212832
 20
1.293984431277515
 30
0.0
 40
2.5
  1
 
 41
0.899999976158142
  7
TC 2_5 mm-ISOCPEUR
 72
     1
 11
-3.949331602094225
 21
2.543984431277515
 31
0.0
100
AcDbAttributeDefinition
  3
Radius
  2
Radius
 70
     0
 74
     2
  0
ENDBLK
  5
107
330
105
100
AcDbEntity
  8
0
100
AcDbBlockEnd
  0
BLOCK
  5
10F
330
10E
100
AcDbEntity
  8
0
100
AcDbBlockBegin
  2
DIN ISO 13715 (Werkstückkanten)
 70
     2
 10
0.0
 20
0.0
 30
0.0
  3
DIN ISO 13715 (Werkstückkanten)
  1

  0
LINE
  5
111
102
{ACAD_REACTORS
330
114
102
}
330
10E
100
AcDbEntity
  8
0
100
AcDbLine
 10
-35.0
 20
20.0
 30
0.0
 11
-32.75944236602587
 21
21.71924034067061
 31
0.0
  0
LINE
  5
112
102
{ACAD_REACTORS
330
114
102
}
330
10E
100
AcDbEntity
  8
0
100
AcDbLine
 10
-33.28075965932943
 20
22.24055763397416
 30
0.0
 11
-35.0
 21
20.0
 31
0.0
  0
LINE
  5
113
102
{ACAD_REACTORS
330
114
102
}
330
10E
100
AcDbEntity
  8
0
100
AcDbLine
 10
-32.75944236602587
 20
21.71924034067061
 30
0.0
 11
-33.28075965932943
 21
22.24055763397416
 31
0.0
  0
HATCH
  5
114
330
10E
100
AcDbEntity
  8
Schraffur
 62
     7
100
AcDbHatch
 10
0.0
 20
0.0
 30
0.0
210
0.0
220
0.0
230
1.0
  2
SOLID
 70
     1
 71
     1
 91
        1
 92
        1
 93
        3
 72
     1
 10
-35.0
 20
20.0
 11
-32.75944236602587
 21
21.71924034067061
 72
     1
 10
-32.75944236602587
 20
21.71924034067061
 11
-33.28075965932943
 21
22.24055763397416
 72
     1
 10
-33.28075965932943
 20
22.24055763397416
 11
-35.0
 21
20.0
 97
        3
330
111
330
113
330
112
 75
     0
 76
     1
 98
        1
 10
0.0
 20
0.0
  0
LINE
  5
115
102
{ACAD_REACTORS
330
118
102
}
330
10E
100
AcDbEntity
  8
0
100
AcDbLine
 10
-20.00000000000003
 20
20.00000000000003
 30
0.0
 11
-17.7594423660259
 21
21.71924034067057
 31
0.0
  0
LINE
  5
116
102
{ACAD_REACTORS
330
118
102
}
330
10E
100
AcDbEntity
  8
0
100
AcDbLine
 10
-18.28075965932939
 20
22.24055763397406
 30
0.0
 11
-20.00000000000003
 21
20.00000000000003
 31
0.0
  0
LINE
  5
117
102
{ACAD_REACTORS
330
118
102
}
330
10E
100
AcDbEntity
  8
0
100
AcDbLine
 10
-17.7594423660259
 20
21.71924034067057
 30
0.0
 11
-18.28075965932939
 21
22.24055763397406
 31
0.0
  0
HATCH
  5
118
330
10E
100
AcDbEntity
  8
Schraffur
 62
     7
100
AcDbHatch
 10
0.0
 20
0.0
 30
0.0
210
0.0
220
0.0
230
1.0
  2
SOLID
 70
     1
 71
     1
 91
        1
 92
        1
 93
        3
 72
     1
 10
-20.00000000000003
 20
20.00000000000003
 11
-17.7594423660259
 21
21.71924034067057
 72
     1
 10
-17.7594423660259
 20
21.71924034067057
 11
-18.28075965932939
 21
22.24055763397406
 72
     1
 10
-18.28075965932939
 20
22.24055763397406
 11
-20.00000000000003
 21
20.00000000000003
 97
        3
330
115
330
117
330
116
 75
     0
 76
     1
 98
        1
 10
0.0
 20
0.0
  0
LINE
  5
119
330
10E
100
AcDbEntity
  8
Skizziergeometrie(ISO)
100
AcDbLine
 10
-39.89999999999998
 20
20.0
 30
0.0
 11
-35.0
 21
20.0
 31
0.0
  0
LINE
  5
11A
330
10E
100
AcDbEntity
  8
Skizziergeometrie(ISO)
100
AcDbLine
 10
-35.0
 20
20.0
 30
0.0
 11
-34.99999999999996
 21
15.09999999999998
 31
0.0
  0
LINE
  5
11B
330
10E
100
AcDbEntity
  8
Skizziergeometrie(ISO)
100
AcDbLine
 10
-20.00000000000003
 20
20.00000000000003
 30
0.0
 11
-15.10000000000005
 21
20.00000000000003
 31
0.0
  0
LINE
  5
11C
330
10E
100
AcDbEntity
  8
Skizziergeometrie(ISO)
100
AcDbLine
 10
-20.00000000000003
 20
20.00000000000003
 30
0.0
 11
-20.00000000000003
 21
24.90000000000002
 31
0.0
  0
LINE
  5
11D
330
10E
100
AcDbEntity
  8
Skizziergeometrie(ISO)
100
AcDbLine
 10
-35.0
 20
20.0
 30
0.0
 11
-31.28768939877062
 21
23.71231060122938
 31
0.0
  0
LINE
  5
11E
330
10E
100
AcDbEntity
  8
Skizziergeometrie(ISO)
100
AcDbLine
 10
-31.28768939877062
 20
23.71231060122938
 30
0.0
 11
-26.3876893987706
 21
23.71231060122938
 31
0.0
  0
LINE
  5
11F
330
10E
100
AcDbEntity
  8
Skizziergeometrie(ISO)
100
AcDbLine
 10
-35.0
 20
20.0
 30
0.0
 11
-33.28075965932943
 21
22.24055763397416
 31
0.0
  0
LINE
  5
120
330
10E
100
AcDbEntity
  8
Skizziergeometrie(ISO)
100
AcDbLine
 10
-33.28075965932943
 20
22.24055763397416
 30
0.0
 11
-32.75944236602587
 21
21.71924034067061
 31
0.0
  0
LINE
  5
121
330
10E
100
AcDbEntity
  8
Skizziergeometrie(ISO)
100
AcDbLine
 10
-32.75944236602587
 20
21.71924034067061
 30
0.0
 11
-35.0
 21
20.0
 31
0.0
  0
LINE
  5
122
330
10E
100
AcDbEntity
  8
Skizziergeometrie(ISO)
100
AcDbLine
 10
-31.28768939877062
 20
23.71231060122938
 30
0.0
 11
-31.28768939877062
 21
28.61231060122936
 31
0.0
  0
LINE
  5
123
330
10E
100
AcDbEntity
  8
Skizziergeometrie(ISO)
100
AcDbLine
 10
-18.02010101267761
 20
21.97989898732235
 30
0.0
 11
-16.28768939877059
 21
23.71231060122938
 31
0.0
  0
LINE
  5
124
330
10E
100
AcDbEntity
  8
Skizziergeometrie(ISO)
100
AcDbLine
 10
-16.28768939877059
 20
23.71231060122938
 30
0.0
 11
-11.3876893987706
 21
23.71231060122938
 31
0.0
  0
LINE
  5
125
330
10E
100
AcDbEntity
  8
Skizziergeometrie(ISO)
100
AcDbLine
 10
-20.00000000000003
 20
20.00000000000003
 30
0.0
 11
-18.28075965932939
 21
22.24055763397406
 31
0.0
  0
LINE
  5
126
330
10E
100
AcDbEntity
  8
Skizziergeometrie(ISO)
100
AcDbLine
 10
-18.28075965932939
 20
22.24055763397406
 30
0.0
 11
-17.7594423660259
 21
21.71924034067057
 31
0.0
  0
LINE
  5
127
330
10E
100
AcDbEntity
  8
Skizziergeometrie(ISO)
100
AcDbLine
 10
-17.7594423660259
 20
21.71924034067057
 30
0.0
 11
-20.00000000000003
 21
20.00000000000003
 31
0.0
  0
LINE
  5
128
330
10E
100
AcDbEntity
  8
Skizziergeometrie(ISO)
100
AcDbLine
 10
-16.28768939877059
 20
23.71231060122938
 30
0.0
 11
-16.28768939877059
 21
28.61231060122936
 31
0.0
  0
LINE
  5
129
330
10E
100
AcDbEntity
  8
Skizziergeometrie(ISO)
100
AcDbLine
 10
-49.99999999999999
 20
35.0
 30
0.0
 11
0.0
 21
35.0
 31
0.0
  0
LINE
  5
12A
330
10E
100
AcDbEntity
  8
Skizziergeometrie(ISO)
100
AcDbLine
 10
0.0
 20
35.0
 30
0.0
 11
0.0
 21
0.0
 31
0.0
  0
LINE
  5
12B
330
10E
100
AcDbEntity
  8
Skizziergeometrie(ISO)
100
AcDbLine
 10
0.0
 20
0.0
 30
0.0
 11
-49.99999999999999
 21
0.0
 31
0.0
  0
LINE
  5
12C
330
10E
100
AcDbEntity
  8
Skizziergeometrie(ISO)
100
AcDbLine
 10
-49.99999999999999
 20
0.0
 30
0.0
 11
-49.99999999999999
 21
35.0
 31
0.0
  0
MTEXT
  5
12D
102
{ACAD_XDICTIONARY
360
627
102
}
330
10E
100
AcDbEntity
  8
Symbole(ISO)
 62
     7
100
AcDbMText
 10
-24.97893135154584
 20
10.23779293592927
 30
0.0
 40
3.499999940395355
 41
49.9873458157533
 71
     5
 72
     1
  1
Werkst\U+00FCckkanten\Pnach ISO 13715
  7
TC 3_5 mm-ISOCPEUR
 73
     2
 44
1.068348169326782
1001
ACAD
1000
MTEXTBEGIN
1070
    73
1070
     2
1070
    44
1040
1.068348169326782
1070
    74
1070
     0
1000
MTEXTEND
  0
ATTDEF
  5
12E
330
10E
100
AcDbEntity
  8
Symbole(ISO)
 62
     7
100
AcDbText
 10
-30.16177492853139
 20
24.5808246293851
 30
0.0
 40
2.5
  1
 
 41
0.899999976158142
  7
TC 2_5 mm-ISOCPEUR
 11
-30.16177492853139
 21
25.8308246293851
 31
0.0
100
AcDbAttributeDefinition
  3
AK unten
  2
AK_unten
 70
     0
 74
     2
  0
ATTDEF
  5
12F
330
10E
100
AcDbEntity
  8
Symbole(ISO)
 62
     7
100
AcDbText
 10
-30.17792390794348
 20
27.58528770975683
 30
0.0
 40
2.5
  1
 
 41
0.899999976158142
  7
TC 2_5 mm-ISOCPEUR
 11
-30.17792390794348
 21
28.83528770975683
 31
0.0
100
AcDbAttributeDefinition
  3
AK oben
  2
AK_oben
 70
     0
 74
     2
  0
ATTDEF
  5
130
330
10E
100
AcDbEntity
  8
Symbole(ISO)
 62
     7
100
AcDbText
 10
-15.11922386270676
 20
24.61259748150297
 30
0.0
 40
2.5
  1
 
 41
0.899999976158142
  7
TC 2_5 mm-ISOCPEUR
 11
-15.11922386270676
 21
25.86259748150297
 31
0.0
100
AcDbAttributeDefinition
  3
IK unten
  2
IK_unten
 70
     0
 74
     2
  0
ATTDEF
  5
131
330
10E
100
AcDbEntity
  8
Symbole(ISO)
 62
     7
100
AcDbText
 10
-15.14487582203273
 20
27.61806754523864
 30
0.0
 40
2.5
  1
 
 41
0.899999976158142
  7
TC 2_5 mm-ISOCPEUR
 11
-15.14487582203273
 21
28.86806754523864
 31
0.0
100
AcDbAttributeDefinition
  3
IK oben
  2
IK_oben
 70
     0
 74
     2
  0
ENDBLK
  5
110
330
10E
100
AcDbEntity
  8
0
100
AcDbBlockEnd
  0
BLOCK
  5
133
330
132
100
AcDbEntity
  8
0
100
AcDbBlockBegin
  2
EN 12329 (Chromatierung)
 70
     0
 10
0.0
 20
0.0
 30
0.0
  3
EN 12329 (Chromatierung)
  1

  0
LINE
  5
135
330
132
100
AcDbEntity
  8
Skizziergeometrie(ISO)
100
AcDbLine
 10
0.0
 20
0.0
 30
0.0
 11
-50.0
 21
0.0
 31
0.0
  0
LINE
  5
136
330
132
100
AcDbEntity
  8
Skizziergeometrie(ISO)
100
AcDbLine
 10
-50.0
 20
0.0
 30
0.0
 11
-50.0
 21
15.0
 31
0.0
  0
LINE
  5
137
330
132
100
AcDbEntity
  8
Skizziergeometrie(ISO)
100
AcDbLine
 10
-50.0
 20
15.0
 30
0.0
 11
0.0
 21
15.00000000000003
 31
0.0
  0
LINE
  5
138
330
132
100
AcDbEntity
  8
Skizziergeometrie(ISO)
100
AcDbLine
 10
0.0
 20
15.00000000000003
 30
0.0
 11
0.0
 21
0.0
 31
0.0
  0
MTEXT
  5
139
330
132
100
AcDbEntity
  8
Symbole(ISO)
 62
     7
100
AcDbMText
 10
-24.98833105758937
 20
7.490142772208123
 30
0.0
 40
2.5
 41
49.83545872181219
 71
     5
 72
     1
  1
Verzinkt FE / ZN / C\PEN 12329\P(gelb chromatiert)
  7
TC 2_5 mm-ISOCPEUR
 73
     2
 44
1.068348169326782
1001
ACAD
1000
MTEXTBEGIN
1070
    73
1070
     2
1070
    44
1040
1.068348169326782
1070
    74
1070
     0
1000
MTEXTEND
  0
ENDBLK
  5
134
330
132
100
AcDbEntity
  8
0
100
AcDbBlockEnd
  0
BLOCK
  5
13B
330
13A
100
AcDbEntity
  8
0
100
AcDbBlockBegin
  2
ISO 2768 (zul. Abweichung)
 70
     2
 10
0.0
 20
0.0
 30
0.0
  3
ISO 2768 (zul. Abweichung)
  1

  0
LINE
  5
13D
330
13A
100
AcDbEntity
  8
Skizziergeometrie(ISO)
100
AcDbLine
 10
-26.0
 20
0.0
 30
0.0
 11
0.0
 21
0.0
 31
0.0
  0
LINE
  5
13E
330
13A
100
AcDbEntity
  8
Skizziergeometrie(ISO)
100
AcDbLine
 10
0.0
 20
0.0
 30
0.0
 11
0.0
 21
17.0
 31
0.0
  0
LINE
  5
13F
330
13A
100
AcDbEntity
  8
Skizziergeometrie(ISO)
100
AcDbLine
 10
0.0
 20
17.0
 30
0.0
 11
-26.0
 21
17.0
 31
0.0
  0
LINE
  5
140
330
13A
100
AcDbEntity
  8
Skizziergeometrie(ISO)
100
AcDbLine
 10
-26.0
 20
17.0
 30
0.0
 11
-26.0
 21
0.0
 31
0.0
  0
MTEXT
  5
141
330
13A
100
AcDbEntity
  8
Symbole(ISO)
 62
     7
100
AcDbMText
 10
-7.994454197588593
 20
5.526470854171373
 30
0.0
 40
2.5
 41
17.99309312940538
 71
     6
 72
     1
  1
ISO 2768-
  7
TC 2_5 mm-ISOCPEUR
 73
     1
 44
1.0
1001
ACAD
1000
MTEXTBEGIN
1070
    73
1070
     1
1070
    44
1040
1.0
1070
    74
1070
     0
1000
MTEXTEND
  0
ATTDEF
  5
142
330
13A
100
AcDbEntity
  8
Symbole(ISO)
 62
     7
100
AcDbText
 10
-7.924832568762529
 20
4.240604076340716
 30
0.0
 40
2.5
  1
 
 41
0.899999976158142
  7
TC 2_5 mm-ISOCPEUR
 11
-7.924832568762529
 21
5.490604076340716
 31
0.0
100
AcDbAttributeDefinition
  3
Grad
  2
Grad
 70
     0
 74
     2
  0
ENDBLK
  5
13C
330
13A
100
AcDbEntity
  8
0
100
AcDbBlockEnd
  0
BLOCK
  5
144
330
143
100
AcDbEntity
  8
0
100
AcDbBlockBegin
  2
DIN ISO 1302 (Oberflächen)
 70
     0
 10
0.0
 20
0.0
 30
0.0
  3
DIN ISO 1302 (Oberflächen)
  1

  0
LINE
  5
146
330
143
100
AcDbEntity
  8
Skizziergeometrie(ISO)
100
AcDbLine
 10
-18.19999999999999
 20
0.0
 30
0.0
 11
0.0
 21
0.0
 31
0.0
  0
LINE
  5
147
330
143
100
AcDbEntity
  8
Skizziergeometrie(ISO)
100
AcDbLine
 10
0.0
 20
0.0
 30
0.0
 11
0.0
 21
17.0
 31
0.0
  0
LINE
  5
148
330
143
100
AcDbEntity
  8
Skizziergeometrie(ISO)
100
AcDbLine
 10
0.0
 20
17.0
 30
0.0
 11
-18.2
 21
17.0
 31
0.0
  0
LINE
  5
149
330
143
100
AcDbEntity
  8
Skizziergeometrie(ISO)
100
AcDbLine
 10
-18.2
 20
17.0
 30
0.0
 11
-18.19999999999999
 21
0.0
 31
0.0
  0
MTEXT
  5
14A
330
143
100
AcDbEntity
  8
Symbole(ISO)
 62
     7
100
AcDbMText
 10
-9.137586403397849
 20
5.561325836084813
 30
0.0
 40
2.5
 41
18.21623868792871
 71
     5
 72
     1
  1
DIN ISO 1302
  7
TC 2_5 mm-ISOCPEUR
 73
     1
 44
1.0
1001
ACAD
1000
MTEXTBEGIN
1070
    73
1070
     1
1070
    44
1040
1.0
1070
    74
1070
     0
1000
MTEXTEND
  0
ENDBLK
  5
145
330
143
100
AcDbEntity
  8
0
100
AcDbBlockEnd
  0
BLOCK
  5
14C
330
14B
100
AcDbEntity
  8
0
100
AcDbBlockBegin
  2
Ränder Ilme Rahmen A4 quer
 70
     0
 10
0.0
 20
0.0
 30
0.0
  3
Ränder Ilme Rahmen A4 quer
  1

  0
LINE
  5
14E
330
14B
100
AcDbEntity
  8
Skizziergeometrie(ISO)
100
AcDbLine
 10
9.999999999999982
 20
9.999999999999952
 30
0.0
 11
10.00000000000001
 21
190.0
 31
0.0
  0
LINE
  5
14F
330
14B
100
AcDbEntity
  8
Skizziergeometrie(ISO)
100
AcDbLine
 10
10.00000000000001
 20
190.0
 30
0.0
 11
287.0
 21
190.0
 31
0.0
  0
LINE
  5
150
330
14B
100
AcDbEntity
  8
Skizziergeometrie(ISO)
100
AcDbLine
 10
9.999999999999982
 20
9.999999999999952
 30
0.0
 11
287.0
 21
10.00000000000003
 31
0.0
  0
LINE
  5
151
330
14B
100
AcDbEntity
  8
Skizziergeometrie(ISO)
100
AcDbLine
 10
148.5
 20
210.0
 30
0.0
 11
148.5
 21
196.0
 31
0.0
  0
LINE
  5
152
330
14B
100
AcDbEntity
  8
Skizziergeometrie(ISO)
100
AcDbLine
 10
287.0
 20
190.0
 30
0.0
 11
287.0
 21
10.00000000000003
 31
0.0
  0
MTEXT
  5
153
330
14B
100
AcDbEntity
  8
Symbole(ISO)
 62
     7
100
AcDbMText
 10
148.5
 20
196.0
 30
0.0
 40
3.499999940395355
 41
0.0
 71
     2
 72
     1
  1
\fISOCPEUR|b0|i0;\H3.5000;    Diritti riservati     All rights reseved
  7
TC 2_5 mm
 73
     1
 44
1.0
1001
ACAD
1000
MTEXTBEGIN
1070
    73
1070
     1
1070
    44
1040
1.0
1070
    74
1070
     0
1000
MTEXTEND
  0
ENDBLK
  5
14D
330
14B
100
AcDbEntity
  8
0
100
AcDbBlockEnd
  0
BLOCK
  5
157
330
156
100
AcDbEntity
  8
0
100
AcDbBlockBegin
  2
Schriftfelder Ilme
 70
     2
 10
0.0
 20
0.0
 30
0.0
  3
Schriftfelder Ilme
  1

  0
ARC
  5
159
102
{ACAD_REACTORS
330
15D
102
}
330
156
100
AcDbEntity
  8
0
100
AcDbCircle
 10
184.655189950303
 20
19.15390948356282
 30
10.0
 40
0.3333333333333996
100
AcDbArc
 50
0.0
 51
180.0
  0
LINE
  5
15A
102
{ACAD_REACTORS
330
15D
102
}
330
156
100
AcDbEntity
  8
0
100
AcDbLine
 10
184.3218566169696
 20
15.84737070168959
 30
10.0
 11
184.3218566169696
 21
19.15390948356282
 31
10.0
  0
ARC
  5
15B
102
{ACAD_REACTORS
330
15D
102
}
330
156
100
AcDbEntity
  8
0
100
AcDbCircle
 10
184.655189950303
 20
15.84737070168959
 30
10.0
 40
0.3333333333333997
100
AcDbArc
 50
180.0
 51
0.0
  0
LINE
  5
15C
102
{ACAD_REACTORS
330
15D
102
}
330
156
100
AcDbEntity
  8
0
100
AcDbLine
 10
184.9885232836365
 20
19.15390948356282
 30
10.0
 11
184.9885232836365
 21
15.84737070168959
 31
10.0
  0
HATCH
  5
15D
330
156
100
AcDbEntity
  8
Schraffur
 62
     7
100
AcDbHatch
 10
0.0
 20
0.0
 30
0.0
210
0.0
220
0.0
230
1.0
  2
SOLID
 70
     1
 71
     1
 91
        1
 92
        1
 93
        4
 72
     2
 10
184.655189950303
 20
19.15390948356282
 40
0.3333333333333996
 50
0.0
 51
180.0
 73
     1
 72
     1
 10
184.3218566169696
 20
19.15390948356282
 11
184.3218566169696
 21
15.84737070168959
 72
     2
 10
184.655189950303
 20
15.84737070168959
 40
0.3333333333333997
 50
180.0
 51
360.0
 73
     1
 72
     1
 10
184.9885232836365
 20
15.84737070168959
 11
184.9885232836365
 21
19.15390948356282
 97
        4
330
159
330
15A
330
15B
330
15C
 75
     0
 76
     1
 98
        1
 10
0.0
 20
0.0
  0
LINE
  5
15E
102
{ACAD_REACTORS
330
165
102
}
330
156
100
AcDbEntity
  8
0
100
AcDbLine
 10
188.4894939320861
 20
14.02010125116808
 30
0.0
 11
186.3218576257727
 21
15.27066065865696
 31
0.0
  0
ARC
  5
15F
102
{ACAD_REACTORS
330
165
102
}
330
156
100
AcDbEntity
  8
0
100
AcDbCircle
 10
188.3229197809228
 20
13.73137272248517
 30
0.0
 40
0.333333333333396
100
AcDbArc
 50
240.0183606311473
 51
60.01836063114733
  0
LINE
  5
160
102
{ACAD_REACTORS
330
165
102
}
330
156
100
AcDbEntity
  8
0
100
AcDbLine
 10
185.9887104250881
 20
14.69320296572853
 30
0.0
 11
188.1563456297596
 21
13.44264419380229
 31
0.0
  0
ARC
  5
161
102
{ACAD_REACTORS
330
165
102
}
330
156
100
AcDbEntity
  8
0
100
AcDbCircle
 10
186.3218598278342
 20
15.27066193048824
 30
0.0
 40
0.6666688687282916
100
AcDbArc
 50
180.0
 51
240.0183606311454
  0
LINE
  5
162
102
{ACAD_REACTORS
330
165
102
}
330
156
100
AcDbEntity
  8
0
100
AcDbLine
 10
185.6551909591059
 20
19.94397836659928
 30
0.0
 11
185.6551909591059
 21
15.27066193048824
 31
0.0
  0
ARC
  5
163
102
{ACAD_REACTORS
330
165
102
}
330
156
100
AcDbEntity
  8
0
100
AcDbCircle
 10
185.9885242924393
 20
19.94397836659928
 30
0.0
 40
0.333333333333396
100
AcDbArc
 50
0.0
 51
180.0
  0
LINE
  5
164
102
{ACAD_REACTORS
330
165
102
}
330
156
100
AcDbEntity
  8
0
100
AcDbLine
 10
186.3218576257727
 20
15.27066065865696
 30
0.0
 11
186.3218576257727
 21
19.94397836659928
 31
0.0
  0
HATCH
  5
165
330
156
100
AcDbEntity
  8
Schraffur
 62
     7
100
AcDbHatch
 10
0.0
 20
0.0
 30
0.0
210
0.0
220
0.0
230
1.0
  2
SOLID
 70
     1
 71
     1
 91
        1
 92
        1
 93
        7
 72
     1
 10
188.4894939320861
 20
14.02010125116808
 11
186.3218576257727
 21
15.27066065865696
 72
     1
 10
186.3218576257727
 20
15.27066065865696
 11
186.3218576257727
 21
19.94397836659928
 72
     2
 10
185.9885242924393
 20
19.94397836659928
 40
0.333333333333396
 50
0.0
 51
180.0
 73
     1
 72
     1
 10
185.6551909591059
 20
19.94397836659928
 11
185.6551909591059
 21
15.27066193048824
 72
     2
 10
186.3218598278342
 20
15.27066193048824
 40
0.6666688687282916
 50
180.0
 51
240.0183606311454
 73
     1
 72
     1
 10
185.9887104250881
 20
14.69320296572853
 11
188.1563456297596
 21
13.44264419380229
 72
     2
 10
188.3229197809228
 20
13.73137272248517
 40
0.333333333333396
 50
240.0183606311473
 51
420.0183606311473
 73
     1
 97
        7
330
15E
330
164
330
163
330
162
330
161
330
160
330
15F
 75
     0
 76
     1
 98
        1
 10
0.0
 20
0.0
  0
LINE
  5
166
102
{ACAD_REACTORS
330
173
102
}
330
156
100
AcDbEntity
  8
0
100
AcDbLine
 10
188.655189950303
 20
18.85482345606895
 30
0.0
 11
187.4829623801859
 21
20.88518116554469
 31
0.0
  0
LINE
  5
167
102
{ACAD_REACTORS
330
173
102
}
330
156
100
AcDbEntity
  8
0
100
AcDbLine
 10
189.82741752042
 20
20.88518116554469
 30
0.0
 11
188.655189950303
 21
18.85482345606895
 31
0.0
  0
ARC
  5
168
102
{ACAD_REACTORS
330
173
102
}
330
156
100
AcDbEntity
  8
0
100
AcDbCircle
 10
190.0568849915682
 20
20.75269805930704
 30
0.0
 40
0.2649662124752865
100
AcDbArc
 50
0.0
 51
149.9999999999939
  0
LINE
  5
169
102
{ACAD_REACTORS
330
173
102
}
330
156
100
AcDbEntity
  8
0
100
AcDbLine
 10
190.3218512040435
 20
14.28806850858179
 30
0.0
 11
190.3218512040435
 21
20.75269805930705
 31
0.0
  0
ARC
  5
16A
102
{ACAD_REACTORS
330
173
102
}
330
156
100
AcDbEntity
  8
0
100
AcDbCircle
 10
189.98851787071
 20
14.28806850858179
 30
0.0
 40
0.3333333333334023
100
AcDbArc
 50
180.0
 51
0.0
  0
LINE
  5
16B
102
{ACAD_REACTORS
330
173
102
}
330
156
100
AcDbEntity
  8
0
100
AcDbLine
 10
189.6551845373767
 20
19.25353601487275
 30
0.0
 11
189.6551845373766
 21
14.28806850858179
 31
0.0
  0
LINE
  5
16C
102
{ACAD_REACTORS
330
173
102
}
330
156
100
AcDbEntity
  8
0
100
AcDbLine
 10
188.7995275176003
 20
17.77149458276708
 30
0.0
 11
189.6551845373767
 21
19.25353601487275
 31
0.0
  0
ARC
  5
16D
102
{ACAD_REACTORS
330
173
102
}
330
156
100
AcDbEntity
  8
0
100
AcDbCircle
 10
188.655189950303
 20
17.85482791610036
 30
0.0
 40
0.1666666666665381
100
AcDbArc
 50
209.9999999999992
 51
330.0000000000008
  0
LINE
  5
16E
102
{ACAD_REACTORS
330
173
102
}
330
156
100
AcDbEntity
  8
0
100
AcDbLine
 10
187.6551953632293
 20
19.25353601487277
 30
0.0
 11
188.5108523830057
 21
17.77149458276708
 31
0.0
  0
LINE
  5
16F
102
{ACAD_REACTORS
330
173
102
}
330
156
100
AcDbEntity
  8
0
100
AcDbLine
 10
187.6551953632293
 20
15.84737070168959
 30
0.0
 11
187.6551953632293
 21
19.25353601487277
 31
0.0
  0
ARC
  5
170
102
{ACAD_REACTORS
330
173
102
}
330
156
100
AcDbEntity
  8
0
100
AcDbCircle
 10
187.3218620298959
 20
15.84737070168959
 30
0.0
 40
0.333333333333396
100
AcDbArc
 50
180.0
 51
0.0
  0
LINE
  5
171
102
{ACAD_REACTORS
330
173
102
}
330
156
100
AcDbEntity
  8
0
100
AcDbLine
 10
186.9885286965624
 20
20.75269805930705
 30
0.0
 11
186.9885286965624
 21
15.84737070168959
 31
0.0
  0
ARC
  5
172
102
{ACAD_REACTORS
330
173
102
}
330
156
100
AcDbEntity
  8
0
100
AcDbCircle
 10
187.2534949090378
 20
20.75269805930705
 30
0.0
 40
0.2649662124752854
100
AcDbArc
 50
29.9999999999981
 51
180.0
  0
HATCH
  5
173
330
156
100
AcDbEntity
  8
Schraffur
 62
     7
100
AcDbHatch
 10
0.0
 20
0.0
 30
0.0
210
0.0
220
0.0
230
1.0
  2
SOLID
 70
     1
 71
     1
 91
        1
 92
        1
 93
       13
 72
     1
 10
188.655189950303
 20
18.85482345606895
 11
187.4829623801859
 21
20.88518116554469
 72
     2
 10
187.2534949090378
 20
20.75269805930705
 40
0.2649662124752854
 50
29.9999999999981
 51
180.0
 73
     1
 72
     1
 10
186.9885286965624
 20
20.75269805930705
 11
186.9885286965624
 21
15.84737070168959
 72
     2
 10
187.3218620298959
 20
15.84737070168959
 40
0.333333333333396
 50
180.0
 51
360.0
 73
     1
 72
     1
 10
187.6551953632293
 20
15.84737070168959
 11
187.6551953632293
 21
19.25353601487277
 72
     1
 10
187.6551953632293
 20
19.25353601487277
 11
188.5108523830057
 21
17.77149458276708
 72
     2
 10
188.655189950303
 20
17.85482791610036
 40
0.1666666666665381
 50
209.9999999999992
 51
330.0000000000008
 73
     1
 72
     1
 10
188.7995275176003
 20
17.77149458276708
 11
189.6551845373767
 21
19.25353601487275
 72
     1
 10
189.6551845373767
 20
19.25353601487275
 11
189.6551845373766
 21
14.28806850858179
 72
     2
 10
189.98851787071
 20
14.28806850858179
 40
0.3333333333334023
 50
180.0
 51
360.0
 73
     1
 72
     1
 10
190.3218512040435
 20
14.28806850858179
 11
190.3218512040435
 21
20.75269805930705
 72
     2
 10
190.0568849915682
 20
20.75269805930704
 40
0.2649662124752865
 50
0.0
 51
149.9999999999939
 73
     1
 72
     1
 10
189.82741752042
 20
20.88518116554469
 11
188.655189950303
 21
18.85482345606894
 97
       13
330
166
330
172
330
171
330
170
330
16F
330
16E
330
16D
330
16C
330
16B
330
16A
330
169
330
168
330
167
 75
     0
 76
     1
 98
        1
 10
0.0
 20
0.0
  0
ARC
  5
174
102
{ACAD_REACTORS
330
182
102
}
330
156
100
AcDbEntity
  8
0
100
AcDbCircle
 10
192.6913083387628
 20
15.84737070168959
 30
10.0
 40
0.3333333333333919
100
AcDbArc
 50
299.9816393688529
 51
119.9816393688526
  0
LINE
  5
175
102
{ACAD_REACTORS
330
182
102
}
330
156
100
AcDbEntity
  8
0
100
AcDbLine
 10
191.6551889415001
 20
15.6344385114688
 30
10.0
 11
192.5247341875995
 21
16.13609923037247
 31
10.0
  0
LINE
  5
176
102
{ACAD_REACTORS
330
182
102
}
330
156
100
AcDbEntity
  8
0
100
AcDbLine
 10
191.6551889415001
 20
17.1673067592928
 30
10.0
 11
191.6551889415001
 21
15.6344385114688
 31
10.0
  0
LINE
  5
177
102
{ACAD_REACTORS
330
182
102
}
330
156
100
AcDbEntity
  8
0
100
AcDbLine
 10
192.6913083387628
 20
17.1673067592928
 30
10.0
 11
191.6551889415001
 21
17.1673067592928
 31
10.0
  0
ARC
  5
178
102
{ACAD_REACTORS
330
182
102
}
330
156
100
AcDbEntity
  8
0
100
AcDbCircle
 10
192.6913083387628
 20
17.5006400926262
 30
10.0
 40
0.333333333333396
100
AcDbArc
 50
270.0
 51
90.0
  0
LINE
  5
179
102
{ACAD_REACTORS
330
182
102
}
330
156
100
AcDbEntity
  8
0
100
AcDbLine
 10
191.6551889415001
 20
17.8339734259596
 30
10.0
 11
192.6913083387628
 21
17.8339734259596
 31
10.0
  0
LINE
  5
17A
102
{ACAD_REACTORS
330
182
102
}
330
156
100
AcDbEntity
  8
0
100
AcDbLine
 10
191.6551889415001
 20
19.36684167378358
 30
10.0
 11
191.6551889415001
 21
17.8339734259596
 31
10.0
  0
LINE
  5
17B
102
{ACAD_REACTORS
330
182
102
}
330
156
100
AcDbEntity
  8
0
100
AcDbLine
 10
192.5247341875995
 20
18.86518095487989
 30
10.0
 11
191.6551889415001
 21
19.36684167378358
 31
10.0
  0
ARC
  5
17C
102
{ACAD_REACTORS
330
182
102
}
330
156
100
AcDbEntity
  8
0
100
AcDbCircle
 10
192.6913083387628
 20
19.15390948356282
 30
10.0
 40
0.3333333333333963
100
AcDbArc
 50
240.0183606311407
 51
60.01835942372524
  0
LINE
  5
17D
102
{ACAD_REACTORS
330
182
102
}
330
156
100
AcDbEntity
  8
0
100
AcDbLine
 10
191.4884297593299
 20
20.23270689528218
 30
10.0
 11
192.857882489926
 21
19.44263801224573
 31
10.0
  0
ARC
  5
17E
102
{ACAD_REACTORS
330
182
102
}
330
156
100
AcDbEntity
  8
0
100
AcDbCircle
 10
191.3218556081666
 20
19.94397836659928
 30
10.0
 40
0.333333333333396
100
AcDbArc
 50
60.01836063114071
 51
180.0
  0
LINE
  5
17F
102
{ACAD_REACTORS
330
182
102
}
330
156
100
AcDbEntity
  8
0
100
AcDbLine
 10
190.9885222748332
 20
15.05730181865312
 30
10.0
 11
190.9885222748332
 21
19.94397836659928
 31
10.0
  0
ARC
  5
180
102
{ACAD_REACTORS
330
182
102
}
330
156
100
AcDbEntity
  8
0
100
AcDbCircle
 10
191.3218556081666
 20
15.05730181865312
 30
10.0
 40
0.333333333333396
100
AcDbArc
 50
180.0
 51
299.9816393688593
  0
LINE
  5
181
102
{ACAD_REACTORS
330
182
102
}
330
156
100
AcDbEntity
  8
0
100
AcDbLine
 10
192.857882489926
 20
15.55864217300668
 30
10.0
 11
191.4884297593299
 21
14.7685732899702
 31
10.0
  0
HATCH
  5
182
330
156
100
AcDbEntity
  8
Schraffur
 62
     7
100
AcDbHatch
 10
0.0
 20
0.0
 30
0.0
210
0.0
220
0.0
230
1.0
  2
SOLID
 70
     1
 71
     1
 91
        1
 92
        1
 93
       14
 72
     2
 10
192.6913083387628
 20
15.84737070168959
 40
0.3333333333333919
 50
299.9816393688529
 51
479.9816393688526
 73
     1
 72
     1
 10
192.5247341875995
 20
16.13609923037247
 11
191.6551889415001
 21
15.63443851146881
 72
     1
 10
191.6551889415001
 20
15.6344385114688
 11
191.6551889415001
 21
17.1673067592928
 72
     1
 10
191.6551889415001
 20
17.1673067592928
 11
192.6913083387628
 21
17.1673067592928
 72
     2
 10
192.6913083387628
 20
17.5006400926262
 40
0.333333333333396
 50
270.0
 51
450.0
 73
     1
 72
     1
 10
192.6913083387628
 20
17.8339734259596
 11
191.6551889415001
 21
17.8339734259596
 72
     1
 10
191.6551889415001
 20
17.8339734259596
 11
191.6551889415001
 21
19.36684167378358
 72
     1
 10
191.6551889415001
 20
19.36684167378358
 11
192.5247341875995
 21
18.86518095487989
 72
     2
 10
192.6913083387628
 20
19.15390948356282
 40
0.3333333333333963
 50
240.0183606311407
 51
420.0183594237252
 73
     1
 72
     1
 10
192.857882489926
 20
19.44263801224573
 11
191.4884297593299
 21
20.23270689528218
 72
     2
 10
191.3218556081666
 20
19.94397836659928
 40
0.333333333333396
 50
60.01836063114071
 51
180.0
 73
     1
 72
     1
 10
190.9885222748332
 20
19.94397836659928
 11
190.9885222748332
 21
15.05730181865312
 72
     2
 10
191.3218556081666
 20
15.05730181865312
 40
0.333333333333396
 50
180.0
 51
299.9816393688593
 73
     1
 72
     1
 10
191.4884297593299
 20
14.7685732899702
 11
192.857882489926
 21
15.55864217300668
 97
       14
330
174
330
175
330
176
330
177
330
178
330
179
330
17A
330
17B
330
17C
330
17D
330
17E
330
17F
330
180
330
181
 75
     0
 76
     1
 98
        1
 10
0.0
 20
0.0
  0
LINE
  5
183
330
156
100
AcDbEntity
  8
Skizziergeometrie(ISO)
100
AcDbLine
 10
19.98018995030303
 20
45.0006400926262
 30
0.0
 11
199.980189950303
 21
45.0006400926262
 31
0.0
  0
LINE
  5
184
330
156
100
AcDbEntity
  8
Skizziergeometrie(ISO)
100
AcDbLine
 10
19.98018995030303
 20
40.0006400926262
 30
0.0
 11
199.980189950303
 21
40.0006400926262
 31
0.0
  0
LINE
  5
185
330
156
100
AcDbEntity
  8
Skizziergeometrie(ISO)
100
AcDbLine
 10
19.98018995030303
 20
35.00064009262621
 30
0.0
 11
199.980189950303
 21
35.00064009262621
 31
0.0
  0
LINE
  5
186
330
156
100
AcDbEntity
  8
Skizziergeometrie(ISO)
100
AcDbLine
 10
19.98018995030303
 20
30.00064009262621
 30
0.0
 11
199.980189950303
 21
30.00064009262621
 31
0.0
  0
LINE
  5
187
330
156
100
AcDbEntity
  8
Skizziergeometrie(ISO)
100
AcDbLine
 10
19.98018995030303
 20
25.00064009262621
 30
0.0
 11
199.980189950303
 21
25.00064009262621
 31
0.0
  0
LINE
  5
188
330
156
100
AcDbEntity
  8
Skizziergeometrie(ISO)
100
AcDbLine
 10
19.98018995030303
 20
17.5006400926262
 30
0.0
 11
49.98018995030306
 21
17.5006400926262
 31
0.0
  0
LINE
  5
189
330
156
100
AcDbEntity
  8
Skizziergeometrie(ISO)
100
AcDbLine
 10
26.98018995030303
 20
45.0006400926262
 30
0.0
 11
26.98018995030303
 21
25.00064009262621
 31
0.0
  0
LINE
  5
18A
330
156
100
AcDbEntity
  8
Skizziergeometrie(ISO)
100
AcDbLine
 10
44.98018995030303
 20
45.0006400926262
 30
0.0
 11
44.98018995030303
 21
25.00064009262621
 31
0.0
  0
LINE
  5
18B
330
156
100
AcDbEntity
  8
Skizziergeometrie(ISO)
100
AcDbLine
 10
49.98018995030306
 20
10.0006400926262
 30
0.0
 11
49.98018995030306
 21
25.00064009262621
 31
0.0
  0
LINE
  5
18C
330
156
100
AcDbEntity
  8
Skizziergeometrie(ISO)
100
AcDbLine
 10
159.980189950303
 20
25.00064009262621
 30
0.0
 11
159.980189950303
 21
10.0006400926262
 31
0.0
  0
LINE
  5
18D
330
156
100
AcDbEntity
  8
Skizziergeometrie(ISO)
100
AcDbLine
 10
177.3301899503031
 20
25.0006400926262
 30
0.0
 11
177.3301899503031
 21
10.0006400926262
 31
0.0
  0
LINE
  5
18E
330
156
100
AcDbEntity
  8
Skizziergeometrie(ISO)
100
AcDbLine
 10
190.9885222748332
 20
15.05730181865312
 30
0.0
 11
190.9885222748332
 21
19.94397836659928
 31
0.0
  0
LINE
  5
18F
330
156
100
AcDbEntity
  8
Skizziergeometrie(ISO)
100
AcDbLine
 10
192.857882489926
 20
15.55864217300668
 30
0.0
 11
191.4884297593299
 21
14.7685732899702
 31
0.0
  0
LINE
  5
190
330
156
100
AcDbEntity
  8
Skizziergeometrie(ISO)
100
AcDbLine
 10
191.6551889415001
 20
15.6344385114688
 30
0.0
 11
192.5247341875995
 21
16.13609923037247
 31
0.0
  0
LINE
  5
191
330
156
100
AcDbEntity
  8
Skizziergeometrie(ISO)
100
AcDbLine
 10
191.6551889415001
 20
17.1673067592928
 30
0.0
 11
191.6551889415001
 21
15.6344385114688
 31
0.0
  0
LINE
  5
192
330
156
100
AcDbEntity
  8
Skizziergeometrie(ISO)
100
AcDbLine
 10
192.6913083387628
 20
17.1673067592928
 30
0.0
 11
191.6551889415001
 21
17.1673067592928
 31
0.0
  0
LINE
  5
193
330
156
100
AcDbEntity
  8
Skizziergeometrie(ISO)
100
AcDbLine
 10
191.6551889415001
 20
17.8339734259596
 30
0.0
 11
192.6913083387628
 21
17.8339734259596
 31
0.0
  0
LINE
  5
194
330
156
100
AcDbEntity
  8
Skizziergeometrie(ISO)
100
AcDbLine
 10
191.6551889415001
 20
19.36684167378358
 30
0.0
 11
191.6551889415001
 21
17.8339734259596
 31
0.0
  0
LINE
  5
195
330
156
100
AcDbEntity
  8
Skizziergeometrie(ISO)
100
AcDbLine
 10
192.5247341875995
 20
18.86518095487989
 30
0.0
 11
191.6551889415001
 21
19.36684167378358
 31
0.0
  0
LINE
  5
196
330
156
100
AcDbEntity
  8
Skizziergeometrie(ISO)
100
AcDbLine
 10
191.4884297593299
 20
20.23270689528218
 30
0.0
 11
192.857882489926
 21
19.44263801224573
 31
0.0
  0
LINE
  5
197
330
156
100
AcDbEntity
  8
Skizziergeometrie(ISO)
100
AcDbLine
 10
184.3218566169696
 20
15.84737070168959
 30
0.0
 11
184.3218566169696
 21
19.15390948356282
 31
0.0
  0
LINE
  5
198
330
156
100
AcDbEntity
  8
Skizziergeometrie(ISO)
100
AcDbLine
 10
184.9885232836365
 20
19.15390948356282
 30
0.0
 11
184.9885232836365
 21
15.84737070168959
 31
0.0
  0
LINE
  5
199
330
156
100
AcDbEntity
  8
Skizziergeometrie(ISO)
100
AcDbLine
 10
188.1563456297596
 20
13.44264419380229
 30
0.0
 11
185.9887104250881
 21
14.69320296572853
 31
0.0
  0
LINE
  5
19A
330
156
100
AcDbEntity
  8
Skizziergeometrie(ISO)
100
AcDbLine
 10
186.3218576257727
 20
15.27066065865696
 30
0.0
 11
188.4894939320861
 21
14.02010125116808
 31
0.0
  0
LINE
  5
19B
330
156
100
AcDbEntity
  8
Skizziergeometrie(ISO)
100
AcDbLine
 10
186.3218576257727
 20
19.94397836659928
 30
0.0
 11
186.3218576257727
 21
15.27066065865696
 31
0.0
  0
LINE
  5
19C
330
156
100
AcDbEntity
  8
Skizziergeometrie(ISO)
100
AcDbLine
 10
185.6551909591059
 20
15.27066193048824
 30
0.0
 11
185.6551909591059
 21
19.94397836659928
 31
0.0
  0
LINE
  5
19D
330
156
100
AcDbEntity
  8
Skizziergeometrie(ISO)
100
AcDbLine
 10
189.82741752042
 20
20.88518116554469
 30
0.0
 11
188.655189950303
 21
18.85482345606895
 31
0.0
  0
LINE
  5
19E
330
156
100
AcDbEntity
  8
Skizziergeometrie(ISO)
100
AcDbLine
 10
190.3218512040435
 20
14.28806850858179
 30
0.0
 11
190.3218512040435
 21
20.75269805930705
 31
0.0
  0
LINE
  5
19F
330
156
100
AcDbEntity
  8
Skizziergeometrie(ISO)
100
AcDbLine
 10
187.4829623801859
 20
20.88518116554469
 30
0.0
 11
188.655189950303
 21
18.85482345606895
 31
0.0
  0
LINE
  5
1A0
330
156
100
AcDbEntity
  8
Skizziergeometrie(ISO)
100
AcDbLine
 10
186.9885286965624
 20
15.84737070168959
 30
0.0
 11
186.9885286965624
 21
20.75269805930705
 31
0.0
  0
LINE
  5
1A1
330
156
100
AcDbEntity
  8
Skizziergeometrie(ISO)
100
AcDbLine
 10
188.655189950303
 20
12.50064009262539
 30
0.0
 11
180.2387546751623
 21
17.35627582828491
 31
0.0
  0
LINE
  5
1A2
330
156
100
AcDbEntity
  8
Skizziergeometrie(ISO)
100
AcDbLine
 10
197.0716252254436
 20
17.35627582828489
 30
0.0
 11
188.655189950303
 21
12.50064009262539
 31
0.0
  0
LINE
  5
1A3
330
156
100
AcDbEntity
  8
Skizziergeometrie(ISO)
100
AcDbLine
 10
188.655189950303
 20
22.50064009262702
 30
0.0
 11
197.0716252254436
 21
17.6450043569675
 31
0.0
  0
LINE
  5
1A4
330
156
100
AcDbEntity
  8
Skizziergeometrie(ISO)
100
AcDbLine
 10
180.2387546751623
 20
17.6450043569675
 30
0.0
 11
188.655189950303
 21
22.50064009262702
 31
0.0
  0
LINE
  5
1A5
330
156
100
AcDbEntity
  8
Skizziergeometrie(ISO)
100
AcDbLine
 10
187.6551953632293
 20
19.25353601487277
 30
0.0
 11
187.6551953632293
 21
15.84737070168959
 31
0.0
  0
LINE
  5
1A6
330
156
100
AcDbEntity
  8
Skizziergeometrie(ISO)
100
AcDbLine
 10
188.5108523830057
 20
17.77149458276708
 30
0.0
 11
187.6551953632293
 21
19.25353601487277
 31
0.0
  0
LINE
  5
1A7
330
156
100
AcDbEntity
  8
Skizziergeometrie(ISO)
100
AcDbLine
 10
189.6551845373767
 20
19.25353601487275
 30
0.0
 11
188.7995275176003
 21
17.77149458276708
 31
0.0
  0
LINE
  5
1A8
330
156
100
AcDbEntity
  8
Skizziergeometrie(ISO)
100
AcDbLine
 10
189.6551845373766
 20
14.28806850858179
 30
0.0
 11
189.6551845373767
 21
19.25353601487275
 31
0.0
  0
ARC
  5
1A9
330
156
100
AcDbEntity
  8
Skizziergeometrie(ISO)
100
AcDbCircle
 10
192.6913083387628
 20
15.84737070168959
 30
0.0
 40
0.3333333333333919
100
AcDbArc
 50
299.9816393688527
 51
119.98163936886
  0
ARC
  5
1AA
330
156
100
AcDbEntity
  8
Skizziergeometrie(ISO)
100
AcDbCircle
 10
192.6913083387628
 20
17.5006400926262
 30
0.0
 40
0.333333333333396
100
AcDbArc
 50
270.0
 51
90.0
  0
ARC
  5
1AB
330
156
100
AcDbEntity
  8
Skizziergeometrie(ISO)
100
AcDbCircle
 10
192.6913083387628
 20
19.15390948356282
 30
0.0
 40
0.3333333333333963
100
AcDbArc
 50
240.0183606311413
 51
60.01836063114108
  0
ARC
  5
1AC
330
156
100
AcDbEntity
  8
Skizziergeometrie(ISO)
100
AcDbCircle
 10
184.655189950303
 20
15.84737070168959
 30
0.0
 40
0.3333333333333997
100
AcDbArc
 50
180.0
 51
0.0
  0
ARC
  5
1AD
330
156
100
AcDbEntity
  8
Skizziergeometrie(ISO)
100
AcDbCircle
 10
184.655189950303
 20
19.15390948356282
 30
0.0
 40
0.3333333333333996
100
AcDbArc
 50
0.0
 51
180.0
  0
ARC
  5
1AE
330
156
100
AcDbEntity
  8
Skizziergeometrie(ISO)
100
AcDbCircle
 10
188.3229197809228
 20
13.73137272248517
 30
0.0
 40
0.333333333333396
100
AcDbArc
 50
240.0183606311468
 51
60.01836063114108
  0
ARC
  5
1AF
330
156
100
AcDbEntity
  8
Skizziergeometrie(ISO)
100
AcDbCircle
 10
185.9885242924393
 20
19.94397836659928
 30
0.0
 40
0.333333333333396
100
AcDbArc
 50
0.0
 51
180.0
  0
ARC
  5
1B0
330
156
100
AcDbEntity
  8
Skizziergeometrie(ISO)
100
AcDbCircle
 10
190.0568849915682
 20
20.75269805930704
 30
0.0
 40
0.2649662124752865
100
AcDbArc
 50
0.0
 51
149.9999999999956
  0
ARC
  5
1B1
330
156
100
AcDbEntity
  8
Skizziergeometrie(ISO)
100
AcDbCircle
 10
189.98851787071
 20
14.28806850858179
 30
0.0
 40
0.3333333333334023
100
AcDbArc
 50
180.0
 51
0.0
  0
ARC
  5
1B2
330
156
100
AcDbEntity
  8
Skizziergeometrie(ISO)
100
AcDbCircle
 10
187.3218620298959
 20
15.84737070168959
 30
0.0
 40
0.333333333333396
100
AcDbArc
 50
180.0
 51
0.0
  0
ARC
  5
1B3
330
156
100
AcDbEntity
  8
Skizziergeometrie(ISO)
100
AcDbCircle
 10
187.2534949090378
 20
20.75269805930705
 30
0.0
 40
0.2649662124752854
100
AcDbArc
 50
29.99999999999976
 51
180.0
  0
ARC
  5
1B4
330
156
100
AcDbEntity
  8
Skizziergeometrie(ISO)
100
AcDbCircle
 10
191.3218556081666
 20
15.05730181865312
 30
0.0
 40
0.333333333333396
100
AcDbArc
 50
180.0
 51
299.9816393688587
  0
ARC
  5
1B5
330
156
100
AcDbEntity
  8
Skizziergeometrie(ISO)
100
AcDbCircle
 10
191.3218556081666
 20
19.94397836659928
 30
0.0
 40
0.333333333333396
100
AcDbArc
 50
60.01836063114071
 51
180.0
  0
ARC
  5
1B6
330
156
100
AcDbEntity
  8
Skizziergeometrie(ISO)
100
AcDbCircle
 10
196.9883381498621
 20
17.5006400926262
 30
0.0
 40
0.1666666666665381
100
AcDbArc
 50
299.9816393688627
 51
60.01836063115012
  0
ARC
  5
1B7
330
156
100
AcDbEntity
  8
Skizziergeometrie(ISO)
100
AcDbCircle
 10
180.3220417507439
 20
17.5006400926262
 30
0.0
 40
0.1666666666665381
100
AcDbArc
 50
119.9816393688498
 51
240.0183606311497
  0
ARC
  5
1B8
330
156
100
AcDbEntity
  8
Skizziergeometrie(ISO)
100
AcDbCircle
 10
186.3218598278342
 20
15.27066193048824
 30
0.0
 40
0.6666688687282916
100
AcDbArc
 50
180.0
 51
240.0183606311453
  0
ARC
  5
1B9
330
156
100
AcDbEntity
  8
Skizziergeometrie(ISO)
100
AcDbCircle
 10
188.655189950303
 20
17.85482791610036
 30
0.0
 40
0.1666666666665381
100
AcDbArc
 50
209.9999999999999
 51
330.0000000000001
  0
LINE
  5
1BA
330
156
100
AcDbEntity
  8
Skizzierlinie(TC_020513_DIN)
100
AcDbLine
 10
20.98018995030303
 20
25.00064009262621
 30
0.0
 11
20.98018995030303
 21
17.5006400926262
 31
0.0
  0
LINE
  5
1BB
330
156
100
AcDbEntity
  8
Skizzierlinie(TC_020513_DIN)
100
AcDbLine
 10
20.98018995030303
 20
17.5006400926262
 30
0.0
 11
20.980189950303
 21
10.0006400926262
 31
0.0
  0
LINE
  5
1BC
330
156
100
AcDbEntity
  8
Skizzierlinie(TC_020513_DIN)
100
AcDbLine
 10
49.98018995030306
 20
25.00064009262621
 30
0.0
 11
29.98018995030301
 21
17.5006400926262
 31
0.0
  0
LINE
  5
1BD
330
156
100
AcDbEntity
  8
Skizzierlinie(TC_020513_DIN)
100
AcDbLine
 10
177.3301899503031
 20
25.0006400926262
 30
0.0
 11
159.980189950303
 21
20.0006400926262
 31
0.0
  0
LINE
  5
1BE
330
156
100
AcDbEntity
  8
Skizzierlinie(TC_020513_DIN)
100
AcDbLine
 10
159.980189950303
 20
20.0006400926262
 30
0.0
 11
177.3301899503031
 21
10.0006400926262
 31
0.0
  0
LINE
  5
1BF
330
156
100
AcDbEntity
  8
Skizziergeometrie(ISO)
100
AcDbLine
 10
19.98018995030303
 20
45.0006400926262
 30
0.0
 11
19.98018995030303
 21
10.0006400926262
 31
0.0
  0
LINE
  5
1C0
330
156
100
AcDbEntity
  8
Skizzierlinie(TC_020513_DIN)
100
AcDbLine
 10
50.98018995030301
 20
25.00064009262621
 30
0.0
 11
50.98018995030301
 21
17.5006400926262
 31
0.0
  0
LINE
  5
1C1
330
156
100
AcDbEntity
  8
Skizzierlinie(TC_020513_DIN)
100
AcDbLine
 10
50.98018995030301
 20
17.5006400926262
 30
0.0
 11
50.98018995030301
 21
10.0006400926262
 31
0.0
  0
MTEXT
  5
1C2
330
156
100
AcDbEntity
  8
Symbole(ISO)
 62
     7
100
AcDbMText
 10
20.98018995030303
 20
21.2506400926262
 30
0.0
 40
2.5
 41
8.997516465920178
 71
     4
 72
     1
  1
 Date
  7
TC 2_5 mm
 73
     1
 44
1.0
1001
ACAD
1000
MTEXTBEGIN
1070
    73
1070
     1
1070
    44
1040
1.0
1070
    74
1070
     0
1000
MTEXTEND
  0
MTEXT
  5
1C3
330
156
100
AcDbEntity
  8
Symbole(ISO)
 62
     7
100
AcDbMText
 10
20.980189950303
 20
13.7506400926262
 30
0.0
 40
2.5
 41
8.970966064125889
 71
     4
 72
     1
  1
 Sign.
  7
TC 2_5 mm
 73
     1
 44
1.0
1001
ACAD
1000
MTEXTBEGIN
1070
    73
1070
     1
1070
    44
1040
1.0
1070
    74
1070
     0
1000
MTEXTEND
  0
MTEXT
  5
1C4
330
156
100
AcDbEntity
  8
Symbole(ISO)
 62
     7
100
AcDbMText
 10
168.655189950303
 20
22.5006400926262
 30
0.0
 40
2.5
 41
17.34061856478945
 71
     5
 72
     1
  1
Scale
  7
TC 2_5 mm
 73
     1
 44
1.0
1001
ACAD
1000
MTEXTBEGIN
1070
    73
1070
     1
1070
    44
1040
1.0
1070
    74
1070
     0
1000
MTEXTEND
  0
MTEXT
  5
1C5
330
156
100
AcDbEntity
  8
Symbole(ISO)
 62
     7
100
AcDbMText
 10
39.98018995030301
 20
21.2506400926262
 30
0.0
 40
3.499999940395355
 41
20.95325017112982
 71
     5
 72
     1
  1
14.12.2006
  7
TC 3_5 mm
 73
     1
 44
1.0
1001
ACAD
1000
MTEXTBEGIN
1070
    73
1070
     1
1070
    44
1040
1.0
1070
    74
1070
     0
1000
MTEXTEND
  0
ATTDEF
  5
1C6
330
156
100
AcDbEntity
  8
Symbole(ISO)
 62
     7
100
AcDbText
 10
50.98018995030301
 20
11.75064006282388
 30
0.0
 40
4.000000059604644
  1
cover, with pegs  AA
 41
1.199999928474426
  7
Kopie von TC 5 mm
 11
50.98018995030301
 21
13.7506400926262
 31
0.0
100
AcDbAttributeDefinition
  3
BEZEICHNUNG
  2
BEZEICHNUNG
 70
     0
 74
     2
  0
ATTDEF
  5
1C7
330
156
100
AcDbEntity
  8
Symbole(ISO)
 62
     7
100
AcDbText
 10
164.2856470919772
 20
12.5006400926262
 30
0.0
 40
5.0
  1
1:1
 41
0.899999976158142
  7
TC 5 mm
 72
     1
 11
168.655189950303
 21
15.0006400926262
 31
0.0
100
AcDbAttributeDefinition
  3
FirstViewScale
  2
FirstViewScale
 70
     0
 74
     2
  0
ATTDEF
  5
1C8
330
156
100
AcDbEntity
  8
Symbole(ISO)
 62
     7
100
AcDbText
 10
50.98018995030301
 20
19.25064006282388
 30
0.0
 40
4.000000059604644
  1
CHCW 24
 41
1.199999928474426
  7
Kopie von TC 5 mm
 11
50.98018995030301
 21
21.2506400926262
 31
0.0
100
AcDbAttributeDefinition
  3
BAUTEILNUMMER
  2
BAUTEILNUMMER
 70
     0
 74
     2
  0
ENDBLK
  5
158
330
156
100
AcDbEntity
  8
0
100
AcDbBlockEnd
  0
BLOCK
  5
302
330
2F7
100
AcDbEntity
  8
0
100
AcDbBlockBegin
  2
*D11
 70
     1
 10
0.0
 20
0.0
 30
0.0
  3
*D11
  1

  0
LINE
  5
3A8
330
2F7
100
AcDbEntity
  8
Bemaßungen(TC_020513_DIN)
  6
Continuous
 62
     7
370
    25
100
AcDbLine
 10
21.80520478729986
 20
172.5349427888244
 30
0.0
 11
21.80520478729986
 21
143.5349427888244
 31
0.0
  0
LINE
  5
3A9
330
2F7
100
AcDbEntity
  8
Bemaßungen(TC_020513_DIN)
  6
Continuous
 62
     7
370
    25
100
AcDbLine
 10
141.8052047872998
 20
172.5349427888244
 30
0.0
 11
141.8052047872998
 21
143.5349427888244
 31
0.0
  0
LINE
  5
3AA
330
2F7
100
AcDbEntity
  8
Bemaßungen(TC_020513_DIN)
  6
Continuous
 62
     7
370
    25
100
AcDbLine
 10
24.30520478729987
 20
145.5349427888244
 30
0.0
 11
139.3052047872998
 21
145.5349427888244
 31
0.0
  0
SOLID
  5
3AB
330
2F7
100
AcDbEntity
  8
Bemaßungen(TC_020513_DIN)
  6
Continuous
 62
     7
100
AcDbTrace
 10
24.30520478729987
 20
145.9516094554911
 30
0.0
 11
24.30520478729987
 21
145.1182761221577
 31
0.0
 12
21.80520478729986
 22
145.5349427888244
 32
0.0
 13
21.80520478729986
 23
145.5349427888244
 33
0.0
  0
SOLID
  5
3AC
330
2F7
100
AcDbEntity
  8
Bemaßungen(TC_020513_DIN)
  6
Continuous
 62
     7
100
AcDbTrace
 10
139.3052047872998
 20
145.9516094554911
 30
0.0
 11
139.3052047872998
 21
145.1182761221577
 31
0.0
 12
141.8052047872998
 22
145.5349427888244
 32
0.0
 13
141.8052047872998
 23
145.5349427888244
 33
0.0
  0
MTEXT
  5
3AD
330
2F7
100
AcDbEntity
  8
Bemaßungen(TC_020513_DIN)
  6
Continuous
 62
     7
370
    25
100
AcDbMText
 10
78.10943398238855
 20
149.9089537028762
 30
0.0
 40
3.5
 41
0.0
 71
     1
 72
     1
  1
\A1;120
  7
Aktuell-BSI
 73
     1
 44
1.0
1001
ACAD
1000
MTEXTBEGIN
1070
    73
1070
     1
1070
    44
1040
1.0
1070
    74
1070
     0
1000
MTEXTEND
  0
POINT
  5
3AE
330
2F7
100
AcDbEntity
  8
Defpoints
  6
Continuous
 62
     0
100
AcDbPoint
 10
21.80520478729986
 20
173.5349427888244
 30
0.0
  0
POINT
  5
3AF
330
2F7
100
AcDbEntity
  8
Defpoints
  6
Continuous
 62
     0
100
AcDbPoint
 10
141.8052047872998
 20
173.5349427888244
 30
0.0
  0
POINT
  5
3B0
330
2F7
100
AcDbEntity
  8
Defpoints
  6
Continuous
 62
     0
100
AcDbPoint
 10
141.8052047872998
 20
145.5349427888244
 30
0.0
  0
ENDBLK
  5
303
330
2F7
100
AcDbEntity
  8
0
100
AcDbBlockEnd
  0
BLOCK
  5
3BD
330
3B2
100
AcDbEntity
  8
0
100
AcDbBlockBegin
  2
*D12
 70
     1
 10
0.0
 20
0.0
 30
0.0
  3
*D12
  1

  0
LINE
  5
46D
330
3B2
100
AcDbEntity
  8
Bemaßungen(TC_020513_DIN)
  6
Continuous
 62
     7
370
    25
100
AcDbLine
 10
119.8052047872112
 20
114.7775899364554
 30
0.0
 11
165.6537213479701
 21
114.7775899364554
 31
0.0
  0
LINE
  5
46E
330
3B2
100
AcDbEntity
  8
Bemaßungen(TC_020513_DIN)
  6
Continuous
 62
     7
370
    25
100
AcDbLine
 10
119.8052047872112
 20
59.77758993645545
 30
0.0
 11
165.6537213479701
 21
59.77758993645545
 31
0.0
  0
LINE
  5
46F
330
3B2
100
AcDbEntity
  8
Bemaßungen(TC_020513_DIN)
  6
Continuous
 62
     7
370
    25
100
AcDbLine
 10
163.6537213479701
 20
112.2775899364554
 30
0.0
 11
163.6537213479701
 21
62.27758993645545
 31
0.0
  0
SOLID
  5
470
330
3B2
100
AcDbEntity
  8
Bemaßungen(TC_020513_DIN)
  6
Continuous
 62
     7
100
AcDbTrace
 10
163.2370546813035
 20
112.2775899364554
 30
0.0
 11
164.0703880146368
 21
112.2775899364554
 31
0.0
 12
163.6537213479701
 22
114.7775899364554
 32
0.0
 13
163.6537213479701
 23
114.7775899364554
 33
0.0
  0
SOLID
  5
471
330
3B2
100
AcDbEntity
  8
Bemaßungen(TC_020513_DIN)
  6
Continuous
 62
     7
100
AcDbTrace
 10
163.2370546813034
 20
62.27758993645545
 30
0.0
 11
164.0703880146368
 21
62.27758993645545
 31
0.0
 12
163.6537213479701
 22
59.77758993645545
 32
0.0
 13
163.6537213479701
 23
59.77758993645545
 33
0.0
  0
MTEXT
  5
472
330
3B2
100
AcDbEntity
  8
Bemaßungen(TC_020513_DIN)
  6
Continuous
 62
     7
370
    25
100
AcDbMText
 10
159.2940351269606
 20
84.75763768543226
 30
0.0
 40
3.5
 41
0.0
 71
     1
 72
     1
  1
\A1;55
  7
Aktuell-BSI
 11
0.0000000000000001
 21
1.0
 31
0.0
 73
     1
 44
1.0
1001
ACAD
1000
MTEXTBEGIN
1070
    73
1070
     1
1070
    44
1040
1.0
1070
    74
1070
     0
1000
MTEXTEND
  0
POINT
  5
473
330
3B2
100
AcDbEntity
  8
Defpoints
  6
Continuous
 62
     0
100
AcDbPoint
 10
118.8052047872112
 20
114.7775899364554
 30
0.0
  0
POINT
  5
474
330
3B2
100
AcDbEntity
  8
Defpoints
  6
Continuous
 62
     0
100
AcDbPoint
 10
118.8052047872112
 20
59.77758993645545
 30
0.0
  0
POINT
  5
475
330
3B2
100
AcDbEntity
  8
Defpoints
  6
Continuous
 62
     0
100
AcDbPoint
 10
163.6537213479701
 20
59.77758993645545
 30
0.0
  0
ENDBLK
  5
3BE
330
3B2
100
AcDbEntity
  8
0
100
AcDbBlockEnd
  0
BLOCK
  5
482
330
477
100
AcDbEntity
  8
0
100
AcDbBlockBegin
  2
*D13
 70
     1
 10
0.0
 20
0.0
 30
0.0
  3
*D13
  1

  0
LINE
  5
532
330
477
100
AcDbEntity
  8
Bemaßungen(TC_020513_DIN)
  6
Continuous
 62
     7
370
    25
100
AcDbLine
 10
191.4855279281031
 20
172.5349427888244
 30
0.0
 11
191.4855279281031
 21
143.5349427888244
 31
0.0
  0
LINE
  5
533
330
477
100
AcDbEntity
  8
Bemaßungen(TC_020513_DIN)
  6
Continuous
 62
     7
370
    25
100
AcDbLine
 10
234.4855279281031
 20
167.5349427888244
 30
0.0
 11
234.4855279281031
 21
143.5349427888244
 31
0.0
  0
LINE
  5
534
330
477
100
AcDbEntity
  8
Bemaßungen(TC_020513_DIN)
  6
Continuous
 62
     7
370
    25
100
AcDbLine
 10
193.985527928103
 20
145.5349427888244
 30
0.0
 11
231.9855279281031
 21
145.5349427888244
 31
0.0
  0
SOLID
  5
535
330
477
100
AcDbEntity
  8
Bemaßungen(TC_020513_DIN)
  6
Continuous
 62
     7
100
AcDbTrace
 10
193.985527928103
 20
145.9516094554911
 30
0.0
 11
193.985527928103
 21
145.1182761221577
 31
0.0
 12
191.4855279281031
 22
145.5349427888244
 32
0.0
 13
191.4855279281031
 23
145.5349427888244
 33
0.0
  0
SOLID
  5
536
330
477
100
AcDbEntity
  8
Bemaßungen(TC_020513_DIN)
  6
Continuous
 62
     7
100
AcDbTrace
 10
231.9855279281031
 20
145.9516094554911
 30
0.0
 11
231.9855279281031
 21
145.1182761221577
 31
0.0
 12
234.4855279281031
 22
145.5349427888244
 32
0.0
 13
234.4855279281031
 23
145.5349427888244
 33
0.0
  0
MTEXT
  5
537
330
477
100
AcDbEntity
  8
Bemaßungen(TC_020513_DIN)
  6
Continuous
 62
     7
370
    25
100
AcDbMText
 10
210.4082769049107
 20
149.9113411517166
 30
0.0
 40
3.5
 41
0.0
 71
     1
 72
     1
  1
\A1;43
  7
Aktuell-BSI
 73
     1
 44
1.0
1001
ACAD
1000
MTEXTBEGIN
1070
    73
1070
     1
1070
    44
1040
1.0
1070
    74
1070
     0
1000
MTEXTEND
  0
POINT
  5
538
330
477
100
AcDbEntity
  8
Defpoints
  6
Continuous
 62
     0
100
AcDbPoint
 10
191.4855279281031
 20
173.5349427888244
 30
0.0
  0
POINT
  5
539
330
477
100
AcDbEntity
  8
Defpoints
  6
Continuous
 62
     0
100
AcDbPoint
 10
234.4855279281031
 20
168.5349427888244
 30
0.0
  0
POINT
  5
53A
330
477
100
AcDbEntity
  8
Defpoints
  6
Continuous
 62
     0
100
AcDbPoint
 10
234.4855279281031
 20
145.5349427888244
 30
0.0
  0
ENDBLK
  5
483
330
477
100
AcDbEntity
  8
0
100
AcDbBlockEnd
  0
BLOCK
  5
547
330
53C
100
AcDbEntity
  8
0
100
AcDbBlockBegin
  2
*D14
 70
     1
 10
0.0
 20
0.0
 30
0.0
  3
*D14
  1

  0
LINE
  5
5F7
330
53C
100
AcDbEntity
  8
Bemaßungen(TC_020513_DIN)
  6
Continuous
 62
     7
370
    25
100
AcDbLine
 10
194.7855279281024
 20
180.5349427888244
 30
0.0
 11
171.7276197469802
 21
180.5349427888244
 31
0.0
  0
LINE
  5
5F8
330
53C
100
AcDbEntity
  8
Bemaßungen(TC_020513_DIN)
  6
Continuous
 62
     7
370
    25
100
AcDbLine
 10
194.7855279281018
 20
168.5349427888244
 30
0.0
 11
171.7276197469802
 21
168.5349427888244
 31
0.0
  0
LINE
  5
5F9
330
53C
100
AcDbEntity
  8
Bemaßungen(TC_020513_DIN)
  6
Continuous
 62
     7
370
    25
100
AcDbLine
 10
173.7276197469802
 20
178.0349427888244
 30
0.0
 11
173.7276197469802
 21
171.0349427888244
 31
0.0
  0
SOLID
  5
5FA
330
53C
100
AcDbEntity
  8
Bemaßungen(TC_020513_DIN)
  6
Continuous
 62
     7
100
AcDbTrace
 10
173.3109530803135
 20
178.0349427888244
 30
0.0
 11
174.1442864136469
 21
178.0349427888244
 31
0.0
 12
173.7276197469802
 22
180.5349427888244
 32
0.0
 13
173.7276197469802
 23
180.5349427888244
 33
0.0
  0
SOLID
  5
5FB
330
53C
100
AcDbEntity
  8
Bemaßungen(TC_020513_DIN)
  6
Continuous
 62
     7
100
AcDbTrace
 10
173.3109530803135
 20
171.0349427888244
 30
0.0
 11
174.1442864136469
 21
171.0349427888244
 31
0.0
 12
173.7276197469802
 22
168.5349427888244
 32
0.0
 13
173.7276197469802
 23
168.5349427888244
 33
0.0
  0
MTEXT
  5
5FC
330
53C
100
AcDbEntity
  8
Bemaßungen(TC_020513_DIN)
  6
Continuous
 62
     7
370
    25
100
AcDbMText
 10
169.4132950539379
 20
172.2107613427126
 30
0.0
 40
3.5
 41
0.0
 71
     1
 72
     1
  1
\A1;12
  7
Aktuell-BSI
 11
0.0000000000000001
 21
1.0
 31
0.0
 73
     1
 44
1.0
1001
ACAD
1000
MTEXTBEGIN
1070
    73
1070
     1
1070
    44
1040
1.0
1070
    74
1070
     0
1000
MTEXTEND
  0
POINT
  5
5FD
330
53C
100
AcDbEntity
  8
Defpoints
  6
Continuous
 62
     0
100
AcDbPoint
 10
195.7855279281024
 20
180.5349427888244
 30
0.0
  0
POINT
  5
5FE
330
53C
100
AcDbEntity
  8
Defpoints
  6
Continuous
 62
     0
100
AcDbPoint
 10
195.7855279281018
 20
168.5349427888244
 30
0.0
  0
POINT
  5
5FF
330
53C
100
AcDbEntity
  8
Defpoints
  6
Continuous
 62
     0
100
AcDbPoint
 10
173.7276197469802
 20
168.5349427888244
 30
0.0
  0
ENDBLK
  5
548
330
53C
100
AcDbEntity
  8
0
100
AcDbBlockEnd
  0
ENDSEC
  0
SECTION
  2
ENTITIES
  0
INSERT
  5
155
330
37
100
AcDbEntity
  8
0
100
AcDbBlockReference
  2
Ränder Ilme Rahmen A4 quer
 10
0.0
 20
0.0
 30
0.0
  0
INSERT
  5
1C9
330
37
100
AcDbEntity
  8
0
100
AcDbBlockReference
 66
     1
  2
Schriftfelder Ilme
 10
87.01981004969702
 20
-0.0006400926262484
 30
0.0
  0
ATTRIB
  5
1CB
330
1C9
100
AcDbEntity
  8
Symbole(ISO)
 62
     7
100
AcDbText
 10
138.0
 20
11.74999997019763
 30
0.0
 40
4.000000059604644
  1
cover, with pegs  AA
 41
1.199999928474426
  7
Kopie von TC 5 mm
 11
138.0
 21
13.74999999999995
 31
0.0
100
AcDbAttribute
  2
BEZEICHNUNG
 70
     0
 74
     2
  0
ATTRIB
  5
1CC
330
1C9
100
AcDbEntity
  8
Symbole(ISO)
 62
     7
100
AcDbText
 10
251.3054571416743
 20
12.49999999999995
 30
0.0
 40
5.0
  1
1:1
 41
0.899999976158142
  7
TC 5 mm
 72
     1
 11
255.675
 21
14.99999999999995
 31
0.0
100
AcDbAttribute
  2
FirstViewScale
 70
     0
 74
     2
  0
ATTRIB
  5
1CD
330
1C9
100
AcDbEntity
  8
Symbole(ISO)
 62
     7
100
AcDbText
 10
138.0
 20
19.24999997019763
 30
0.0
 40
4.000000059604644
  1
CHCW 24
 41
1.199999928474426
  7
Kopie von TC 5 mm
 11
138.0
 21
21.24999999999996
 31
0.0
100
AcDbAttribute
  2
BAUTEILNUMMER
 70
     0
 74
     2
  0
SEQEND
  5
1CA
330
1C9
100
AcDbEntity
  8
0
  0
LINE
  5
1CE
330
37
100
AcDbEntity
  8
Sichtbare Kanten(TC_020513_DIN)
100
AcDbLine
 10
23.80520478729987
 20
180.5349427888244
 30
0.0
 11
26.10520478729986
 21
180.5349427888244
 31
0.0
  0
LINE
  5
1CF
330
37
100
AcDbEntity
  8
Sichtbare Kanten(TC_020513_DIN)
100
AcDbLine
 10
137.5052047872999
 20
180.5349427888244
 30
0.0
 11
139.8052047872998
 21
180.5349427888244
 31
0.0
  0
LINE
  5
1D0
330
37
100
AcDbEntity
  8
Sichtbare Kanten(TC_020513_DIN)
100
AcDbLine
 10
26.10520478729986
 20
168.5349427888244
 30
0.0
 11
21.80520478729987
 21
168.5349427888244
 31
0.0
  0
LINE
  5
1D1
330
37
100
AcDbEntity
  8
Sichtbare Kanten(TC_020513_DIN)
100
AcDbLine
 10
21.80520478729986
 20
178.5349427888244
 30
0.0
 11
21.80520478729987
 21
168.5349427888244
 31
0.0
  0
LINE
  5
1D2
330
37
100
AcDbEntity
  8
Sichtbare Kanten(TC_020513_DIN)
100
AcDbLine
 10
141.8052047872998
 20
168.5349427888244
 30
0.0
 11
137.5052047872999
 21
168.5349427888244
 31
0.0
  0
LINE
  5
1D3
330
37
100
AcDbEntity
  8
Sichtbare Kanten(TC_020513_DIN)
100
AcDbLine
 10
141.8052047872998
 20
168.5349427888244
 30
0.0
 11
141.8052047872998
 21
178.5349427888244
 31
0.0
  0
LINE
  5
1D4
330
37
100
AcDbEntity
  8
Sichtbare Kanten(TC_020513_DIN)
100
AcDbLine
 10
137.5052047872999
 20
180.5349427888244
 30
0.0
 11
26.10520478729986
 21
180.5349427888244
 31
0.0
  0
ARC
  5
1D5
330
37
100
AcDbEntity
  8
Sichtbare Kanten(TC_020513_DIN)
100
AcDbCircle
 10
23.80520478729988
 20
178.5349427888244
 30
0.0
 40
2.000000000000008
100
AcDbArc
 50
90.00000000000024
 51
180.0
  0
ARC
  5
1D6
330
37
100
AcDbEntity
  8
Sichtbare Kanten(TC_020513_DIN)
100
AcDbCircle
 10
139.8052047872998
 20
178.5349427888244
 30
0.0
 40
2.00000000000001
100
AcDbArc
 50
0.0
 51
89.99999999999948
  0
LINE
  5
1D7
330
37
100
AcDbEntity
  8
Sichtbare Kanten(TC_020513_DIN)
100
AcDbLine
 10
86.80520478729986
 20
170.5349427888244
 30
0.0
 11
83.04264165437633
 21
170.5349427888244
 31
0.0
  0
LINE
  5
1D8
330
37
100
AcDbEntity
  8
Sichtbare Kanten(TC_020513_DIN)
100
AcDbLine
 10
86.80520478729986
 20
168.5349427888244
 30
0.0
 11
83.04264165437633
 21
168.5349427888244
 31
0.0
  0
LINE
  5
1D9
330
37
100
AcDbEntity
  8
Sichtbare Kanten(TC_020513_DIN)
100
AcDbLine
 10
86.80520478729986
 20
170.5349427888244
 30
0.0
 11
86.80520478729986
 21
168.5349427888244
 31
0.0
  0
LINE
  5
1DA
330
37
100
AcDbEntity
  8
Sichtbare Kanten(TC_020513_DIN)
100
AcDbLine
 10
82.30520478729987
 20
170.5349427888244
 30
0.0
 11
83.04264165437633
 21
170.5349427888244
 31
0.0
  0
LINE
  5
1DB
330
37
100
AcDbEntity
  8
Sichtbare Kanten(TC_020513_DIN)
100
AcDbLine
 10
80.56776792022342
 20
170.5349427888244
 30
0.0
 11
81.30520478729986
 21
170.5349427888244
 31
0.0
  0
LINE
  5
1DC
330
37
100
AcDbEntity
  8
Sichtbare Kanten(TC_020513_DIN)
100
AcDbLine
 10
82.50520478729987
 20
168.5349427888244
 30
0.0
 11
83.04264165437633
 21
168.5349427888244
 31
0.0
  0
LINE
  5
1DD
330
37
100
AcDbEntity
  8
Sichtbare Kanten(TC_020513_DIN)
100
AcDbLine
 10
80.5677679202234
 20
168.5349427888244
 30
0.0
 11
81.10520478729986
 21
168.5349427888244
 31
0.0
  0
LINE
  5
1DE
330
37
100
AcDbEntity
  8
Sichtbare Kanten(TC_020513_DIN)
100
AcDbLine
 10
80.5677679202234
 20
170.5349427888244
 30
0.0
 11
76.80520478729987
 21
170.5349427888244
 31
0.0
  0
LINE
  5
1DF
330
37
100
AcDbEntity
  8
Sichtbare Kanten(TC_020513_DIN)
100
AcDbLine
 10
76.80520478729987
 20
168.5349427888244
 30
0.0
 11
76.80520478729987
 21
170.5349427888244
 31
0.0
  0
LINE
  5
1E0
330
37
100
AcDbEntity
  8
Sichtbare Kanten(TC_020513_DIN)
100
AcDbLine
 10
80.5677679202234
 20
168.5349427888244
 30
0.0
 11
76.80520478729987
 21
168.5349427888244
 31
0.0
  0
LINE
  5
1E1
330
37
100
AcDbEntity
  8
Sichtbare Kanten(TC_020513_DIN)
100
AcDbLine
 10
26.30520478729987
 20
168.5349427888244
 30
0.0
 11
26.30520478729987
 21
166.5349427888244
 31
0.0
  0
LINE
  5
1E2
330
37
100
AcDbEntity
  8
Sichtbare Kanten(TC_020513_DIN)
100
AcDbLine
 10
27.81023004046929
 20
166.5349427888244
 30
0.0
 11
28.01525529363871
 21
166.5349427888244
 31
0.0
  0
LINE
  5
1E3
330
37
100
AcDbEntity
  8
Sichtbare Kanten(TC_020513_DIN)
100
AcDbLine
 10
27.81023004046929
 20
166.5349427888244
 30
0.0
 11
26.80520478729987
 21
166.5349427888244
 31
0.0
  0
LINE
  5
1E4
330
37
100
AcDbEntity
  8
Sichtbare Kanten(TC_020513_DIN)
100
AcDbLine
 10
26.80520478729987
 20
168.5349427888244
 30
0.0
 11
26.80520478729987
 21
166.5349427888244
 31
0.0
  0
LINE
  5
1E5
330
37
100
AcDbEntity
  8
Sichtbare Kanten(TC_020513_DIN)
100
AcDbLine
 10
26.80520478729987
 20
166.5349427888244
 30
0.0
 11
26.30520478729987
 21
166.5349427888244
 31
0.0
  0
LINE
  5
1E6
330
37
100
AcDbEntity
  8
Sichtbare Kanten(TC_020513_DIN)
100
AcDbLine
 10
28.01525529363871
 20
166.5349427888244
 30
0.0
 11
28.01525529363871
 21
168.5349427888244
 31
0.0
  0
LINE
  5
1E7
330
37
100
AcDbEntity
  8
Sichtbare Kanten(TC_020513_DIN)
100
AcDbLine
 10
135.8001795341304
 20
166.5349427888244
 30
0.0
 11
135.595154280961
 21
166.5349427888244
 31
0.0
  0
LINE
  5
1E8
330
37
100
AcDbEntity
  8
Sichtbare Kanten(TC_020513_DIN)
100
AcDbLine
 10
135.8001795341304
 20
166.5349427888244
 30
0.0
 11
136.8052047872998
 21
166.5349427888244
 31
0.0
  0
LINE
  5
1E9
330
37
100
AcDbEntity
  8
Sichtbare Kanten(TC_020513_DIN)
100
AcDbLine
 10
136.8052047872998
 20
168.5349427888244
 30
0.0
 11
136.8052047872998
 21
166.5349427888244
 31
0.0
  0
LINE
  5
1EA
330
37
100
AcDbEntity
  8
Sichtbare Kanten(TC_020513_DIN)
100
AcDbLine
 10
136.8052047872998
 20
166.5349427888244
 30
0.0
 11
137.3052047872998
 21
166.5349427888244
 31
0.0
  0
LINE
  5
1EB
330
37
100
AcDbEntity
  8
Sichtbare Kanten(TC_020513_DIN)
100
AcDbLine
 10
137.3052047872998
 20
168.5349427888244
 30
0.0
 11
137.3052047872998
 21
166.5349427888244
 31
0.0
  0
LINE
  5
1EC
330
37
100
AcDbEntity
  8
Sichtbare Kanten(TC_020513_DIN)
100
AcDbLine
 10
135.595154280961
 20
168.5349427888244
 30
0.0
 11
135.595154280961
 21
166.5349427888244
 31
0.0
  0
LINE
  5
1ED
330
37
100
AcDbEntity
  8
Sichtbare Kanten(TC_020513_DIN)
100
AcDbLine
 10
32.30520478729987
 20
168.5349427888244
 30
0.0
 11
32.30520478729987
 21
166.5349427888244
 31
0.0
  0
LINE
  5
1EE
330
37
100
AcDbEntity
  8
Sichtbare Kanten(TC_020513_DIN)
100
AcDbLine
 10
37.30520478729987
 20
166.5349427888244
 30
0.0
 11
32.30520478729987
 21
166.5349427888244
 31
0.0
  0
LINE
  5
1EF
330
37
100
AcDbEntity
  8
Sichtbare Kanten(TC_020513_DIN)
100
AcDbLine
 10
37.30520478729987
 20
168.5349427888244
 30
0.0
 11
37.30520478729987
 21
166.5349427888244
 31
0.0
  0
LINE
  5
1F0
330
37
100
AcDbEntity
  8
Sichtbare Kanten(TC_020513_DIN)
100
AcDbLine
 10
126.3052047872999
 20
168.5349427888244
 30
0.0
 11
126.3052047872999
 21
166.5349427888244
 31
0.0
  0
LINE
  5
1F1
330
37
100
AcDbEntity
  8
Sichtbare Kanten(TC_020513_DIN)
100
AcDbLine
 10
131.3052047872999
 20
166.5349427888244
 30
0.0
 11
126.3052047872999
 21
166.5349427888244
 31
0.0
  0
LINE
  5
1F2
330
37
100
AcDbEntity
  8
Sichtbare Kanten(TC_020513_DIN)
100
AcDbLine
 10
131.3052047872999
 20
168.5349427888244
 30
0.0
 11
131.3052047872999
 21
166.5349427888244
 31
0.0
  0
CIRCLE
  5
1F3
330
37
100
AcDbEntity
  8
Sichtbare Kanten(TC_020513_DIN)
100
AcDbCircle
 10
44.80520478729986
 20
174.0349427888244
 30
0.0
 40
2.5
  0
CIRCLE
  5
1F4
330
37
100
AcDbEntity
  8
Sichtbare Kanten(TC_020513_DIN)
100
AcDbCircle
 10
44.80520478729986
 20
174.0349427888244
 30
0.0
 40
4.000000000000006
  0
CIRCLE
  5
1F5
330
37
100
AcDbEntity
  8
Sichtbare Kanten(TC_020513_DIN)
100
AcDbCircle
 10
118.8052047872998
 20
174.0349427888244
 30
0.0
 40
2.5
  0
CIRCLE
  5
1F6
330
37
100
AcDbEntity
  8
Sichtbare Kanten(TC_020513_DIN)
100
AcDbCircle
 10
118.8052047872998
 20
174.0349427888244
 30
0.0
 40
4.000000000000006
  0
LINE
  5
1F7
330
37
100
AcDbEntity
  8
Sichtbare Kanten(TC_020513_DIN)
100
AcDbLine
 10
137.5052047872999
 20
168.5349427888244
 30
0.0
 11
86.80520478729986
 21
168.5349427888244
 31
0.0
  0
LINE
  5
1F8
330
37
100
AcDbEntity
  8
Sichtbare Kanten(TC_020513_DIN)
100
AcDbLine
 10
76.80520478729987
 20
168.5349427888244
 30
0.0
 11
26.10520478729986
 21
168.5349427888244
 31
0.0
  0
ARC
  5
1F9
330
37
100
AcDbEntity
  8
Sichtbare Kanten(TC_020513_DIN)
100
AcDbCircle
 10
80.30520478729986
 20
169.5349427888244
 30
0.0
 40
0.7500000000000071
100
AcDbArc
 50
248.9605302186832
 51
270.0
  0
ARC
  5
1FA
330
37
100
AcDbEntity
  8
Sichtbare Kanten(TC_020513_DIN)
100
AcDbCircle
 10
80.30520478729986
 20
169.5349427888244
 30
0.0
 40
0.7500000000000002
100
AcDbArc
 50
0.0
 51
195.4660099534202
  0
LINE
  5
1FB
330
37
100
AcDbEntity
  8
Sichtbare Kanten(TC_020513_DIN)
100
AcDbLine
 10
81.80520478729986
 20
168.7849427888244
 30
0.0
 11
80.30520478729986
 21
168.7849427888244
 31
0.0
  0
ARC
  5
1FC
330
37
100
AcDbEntity
  8
Sichtbare Kanten(TC_020513_DIN)
100
AcDbCircle
 10
81.80520478729986
 20
169.5349427888244
 30
0.0
 40
0.7500000000000002
100
AcDbArc
 50
344.5339900465799
 51
180.0
  0
ARC
  5
1FD
330
37
100
AcDbEntity
  8
Sichtbare Kanten(TC_020513_DIN)
100
AcDbCircle
 10
81.80520478729986
 20
169.5349427888244
 30
0.0
 40
0.7500000000000011
100
AcDbArc
 50
270.0
 51
291.0394697813168
  0
LINE
  5
1FE
330
37
100
AcDbEntity
  8
Sichtbare Kanten(TC_020513_DIN)
100
AcDbLine
 10
84.55520478729983
 20
168.8349427888244
 30
0.0
 11
77.55520478729984
 21
168.8349427888244
 31
0.0
  0
LINE
  5
1FF
330
37
100
AcDbEntity
  8
Sichtbare Kanten(TC_020513_DIN)
100
AcDbLine
 10
77.55520478729984
 20
169.3349427888244
 30
0.0
 11
84.55520478729983
 21
169.3349427888244
 31
0.0
  0
LINE
  5
200
330
37
100
AcDbEntity
  8
Sichtbare Kanten(TC_020513_DIN)
100
AcDbLine
 10
84.55520478729983
 20
169.3349427888244
 30
0.0
 11
84.55520478729983
 21
168.8349427888244
 31
0.0
  0
LINE
  5
201
330
37
100
AcDbEntity
  8
Sichtbare Kanten(TC_020513_DIN)
100
AcDbLine
 10
77.55520478729984
 20
169.3349427888244
 30
0.0
 11
77.55520478729984
 21
168.8349427888244
 31
0.0
  0
ARC
  5
202
330
37
100
AcDbEntity
  8
Sichtbare Kanten(TC_020513_DIN)
100
AcDbCircle
 10
81.80520478729986
 20
168.5349427888244
 30
0.0
 40
0.7000000000000019
100
AcDbArc
 50
159.0751675723631
 51
180.0
  0
ARC
  5
203
330
37
100
AcDbEntity
  8
Sichtbare Kanten(TC_020513_DIN)
100
AcDbCircle
 10
81.80520478729986
 20
168.5349427888244
 30
0.0
 40
0.6999999999999998
100
AcDbArc
 50
180.0
 51
25.37693352515308
  0
ARC
  5
204
330
37
100
AcDbEntity
  8
Sichtbare Kanten(TC_020513_DIN)
100
AcDbCircle
 10
81.80520478729986
 20
168.5349427888244
 30
0.0
 40
0.5
100
AcDbArc
 50
150.0000000000023
 51
36.86989764584442
  0
LINE
  5
205
330
37
100
AcDbEntity
  8
Sichtbare Kanten(TC_020513_DIN)
100
AcDbLine
 10
81.30520478729986
 20
167.6538080363457
 30
0.0
 11
81.30520478729986
 21
168.0450448402678
 31
0.0
  0
LINE
  5
206
330
37
100
AcDbEntity
  8
Sichtbare Kanten(TC_020513_DIN)
100
AcDbLine
 10
82.30520478729987
 20
167.6538080363457
 30
0.0
 11
82.30520478729987
 21
168.0450448402678
 31
0.0
  0
ARC
  5
207
330
37
100
AcDbEntity
  8
Sichtbare Kanten(TC_020513_DIN)
100
AcDbCircle
 10
81.80520478729986
 20
171.5349427888244
 30
0.0
 40
0.5
100
AcDbArc
 50
0.0
 51
180.0
  0
ARC
  5
208
330
37
100
AcDbEntity
  8
Sichtbare Kanten(TC_020513_DIN)
100
AcDbCircle
 10
81.80520478729986
 20
167.5349427888244
 30
0.0
 40
0.5
100
AcDbArc
 50
180.0
 51
0.0
  0
LINE
  5
209
330
37
100
AcDbEntity
  8
Sichtbare Kanten(TC_020513_DIN)
100
AcDbLine
 10
81.30520478729986
 20
171.5349427888244
 30
0.0
 11
81.30520478729986
 21
171.176246402121
 31
0.0
  0
LINE
  5
20A
330
37
100
AcDbEntity
  8
Sichtbare Kanten(TC_020513_DIN)
100
AcDbLine
 10
81.30520478729986
 20
167.6538080363457
 30
0.0
 11
81.30520478729986
 21
167.5349427888244
 31
0.0
  0
LINE
  5
20B
330
37
100
AcDbEntity
  8
Sichtbare Kanten(TC_020513_DIN)
100
AcDbLine
 10
82.30520478729987
 20
167.5349427888244
 30
0.0
 11
82.30520478729987
 21
167.6538080363457
 31
0.0
  0
LINE
  5
20C
330
37
100
AcDbEntity
  8
Sichtbare Kanten(TC_020513_DIN)
100
AcDbLine
 10
82.30520478729987
 20
171.176246402121
 30
0.0
 11
82.30520478729987
 21
171.5349427888244
 31
0.0
  0
LINE
  5
20D
330
37
100
AcDbEntity
  8
Sichtbare Kanten(TC_020513_DIN)
100
AcDbLine
 10
81.30520478729986
 20
170.0939597831994
 30
0.0
 11
81.30520478729986
 21
171.176246402121
 31
0.0
  0
LINE
  5
20E
330
37
100
AcDbEntity
  8
Sichtbare Kanten(TC_020513_DIN)
100
AcDbLine
 10
82.30520478729987
 20
170.0939597831994
 30
0.0
 11
82.30520478729987
 21
171.176246402121
 31
0.0
  0
LINE
  5
20F
330
37
100
AcDbEntity
  8
Sichtbare Kanten(TC_020513_DIN)
100
AcDbLine
 10
234.4855279281031
 20
168.5349427888244
 30
0.0
 11
230.1855279281018
 21
168.5349427888244
 31
0.0
  0
LINE
  5
210
330
37
100
AcDbEntity
  8
Sichtbare Kanten(TC_020513_DIN)
100
AcDbLine
 10
195.7855279281018
 20
168.5349427888244
 30
0.0
 11
191.4855279281031
 21
168.5349427888244
 31
0.0
  0
LINE
  5
211
330
37
100
AcDbEntity
  8
Sichtbare Kanten(TC_020513_DIN)
100
AcDbLine
 10
230.1855279281024
 20
180.5349427888244
 30
0.0
 11
232.4855279281031
 21
180.5349427888244
 31
0.0
  0
LINE
  5
212
330
37
100
AcDbEntity
  8
Sichtbare Kanten(TC_020513_DIN)
100
AcDbLine
 10
191.4855279281031
 20
178.5349427888244
 30
0.0
 11
191.4855279281031
 21
168.5349427888244
 31
0.0
  0
LINE
  5
213
330
37
100
AcDbEntity
  8
Sichtbare Kanten(TC_020513_DIN)
100
AcDbLine
 10
193.4855279281031
 20
180.5349427888244
 30
0.0
 11
195.7855279281024
 21
180.5349427888244
 31
0.0
  0
LINE
  5
214
330
37
100
AcDbEntity
  8
Sichtbare Kanten(TC_020513_DIN)
100
AcDbLine
 10
234.4855279281031
 20
168.5349427888244
 30
0.0
 11
234.4855279281031
 21
178.5349427888244
 31
0.0
  0
LINE
  5
215
330
37
100
AcDbEntity
  8
Sichtbare Kanten(TC_020513_DIN)
100
AcDbLine
 10
230.1855279281024
 20
180.5349427888244
 30
0.0
 11
195.7855279281024
 21
180.5349427888244
 31
0.0
  0
ARC
  5
216
330
37
100
AcDbEntity
  8
Sichtbare Kanten(TC_020513_DIN)
100
AcDbCircle
 10
232.4855279281031
 20
178.5349427888244
 30
0.0
 40
1.999999999999997
100
AcDbArc
 50
0.0
 51
90.0
  0
ARC
  5
217
330
37
100
AcDbEntity
  8
Sichtbare Kanten(TC_020513_DIN)
100
AcDbCircle
 10
193.4855279281031
 20
178.5349427888244
 30
0.0
 40
2.000000000000003
100
AcDbArc
 50
90.0
 51
180.0
  0
LINE
  5
218
330
37
100
AcDbEntity
  8
Sichtbare Kanten(TC_020513_DIN)
100
AcDbLine
 10
238.2480910610428
 20
168.5349427888244
 30
0.0
 11
238.7606541939667
 21
168.5349427888244
 31
0.0
  0
LINE
  5
219
330
37
100
AcDbEntity
  8
Sichtbare Kanten(TC_020513_DIN)
100
AcDbLine
 10
238.2480910610428
 20
170.5349427888244
 30
0.0
 11
238.7606541939667
 21
170.5349427888244
 31
0.0
  0
LINE
  5
21A
330
37
100
AcDbEntity
  8
Sichtbare Kanten(TC_020513_DIN)
100
AcDbLine
 10
238.2480910610428
 20
170.5349427888244
 30
0.0
 11
234.9855279281183
 21
170.5349427888244
 31
0.0
  0
LINE
  5
21B
330
37
100
AcDbEntity
  8
Sichtbare Kanten(TC_020513_DIN)
100
AcDbLine
 10
238.2480910610428
 20
168.5349427888244
 30
0.0
 11
234.4855279281181
 21
168.5349427888244
 31
0.0
  0
LINE
  5
21C
330
37
100
AcDbEntity
  8
Sichtbare Kanten(TC_020513_DIN)
100
AcDbLine
 10
238.7606541939667
 20
168.5349427888244
 30
0.0
 11
238.7606541939667
 21
170.5349427888244
 31
0.0
  0
LINE
  5
21D
330
37
100
AcDbEntity
  8
Sichtbare Kanten(TC_020513_DIN)
100
AcDbLine
 10
204.9855279281032
 20
168.5349427888244
 30
0.0
 11
204.9855279281032
 21
166.5349427888244
 31
0.0
  0
LINE
  5
21E
330
37
100
AcDbEntity
  8
Sichtbare Kanten(TC_020513_DIN)
100
AcDbLine
 10
201.9855279281032
 20
168.5349427888244
 30
0.0
 11
201.9855279281032
 21
166.5349427888244
 31
0.0
  0
LINE
  5
21F
330
37
100
AcDbEntity
  8
Sichtbare Kanten(TC_020513_DIN)
100
AcDbLine
 10
204.9855279281032
 20
166.5349427888244
 30
0.0
 11
201.9855279281032
 21
166.5349427888244
 31
0.0
  0
LINE
  5
220
330
37
100
AcDbEntity
  8
Sichtbare Kanten(TC_020513_DIN)
100
AcDbLine
 10
220.9855279281032
 20
168.5349427888244
 30
0.0
 11
220.9855279281032
 21
166.5349427888244
 31
0.0
  0
LINE
  5
221
330
37
100
AcDbEntity
  8
Sichtbare Kanten(TC_020513_DIN)
100
AcDbLine
 10
223.9855279281031
 20
166.5349427888244
 30
0.0
 11
220.9855279281032
 21
166.5349427888244
 31
0.0
  0
LINE
  5
222
330
37
100
AcDbEntity
  8
Sichtbare Kanten(TC_020513_DIN)
100
AcDbLine
 10
223.9855279281031
 20
168.5349427888244
 30
0.0
 11
223.9855279281031
 21
166.5349427888244
 31
0.0
  0
LINE
  5
223
330
37
100
AcDbEntity
  8
Sichtbare Kanten(TC_020513_DIN)
100
AcDbLine
 10
229.9855279281049
 20
168.5349427888244
 30
0.0
 11
229.9855279281049
 21
166.5349427888244
 31
0.0
  0
LINE
  5
224
330
37
100
AcDbEntity
  8
Sichtbare Kanten(TC_020513_DIN)
100
AcDbLine
 10
229.9855279281049
 20
166.5349427888244
 30
0.0
 11
228.985527928105
 21
166.5349427888244
 31
0.0
  0
LINE
  5
225
330
37
100
AcDbEntity
  8
Sichtbare Kanten(TC_020513_DIN)
100
AcDbLine
 10
228.985527928105
 20
168.5349427888244
 30
0.0
 11
228.985527928105
 21
166.5349427888244
 31
0.0
  0
LINE
  5
226
330
37
100
AcDbEntity
  8
Sichtbare Kanten(TC_020513_DIN)
100
AcDbLine
 10
228.985527928105
 20
166.5349427888244
 30
0.0
 11
227.192634709292
 21
166.5349427888244
 31
0.0
  0
LINE
  5
227
330
37
100
AcDbEntity
  8
Sichtbare Kanten(TC_020513_DIN)
100
AcDbLine
 10
226.8997414904788
 20
166.5349427888244
 30
0.0
 11
227.192634709292
 21
166.5349427888244
 31
0.0
  0
LINE
  5
228
330
37
100
AcDbEntity
  8
Sichtbare Kanten(TC_020513_DIN)
100
AcDbLine
 10
226.8997414904788
 20
166.5349427888244
 30
0.0
 11
226.8997414904788
 21
168.5349427888244
 31
0.0
  0
LINE
  5
229
330
37
100
AcDbEntity
  8
Sichtbare Kanten(TC_020513_DIN)
100
AcDbLine
 10
195.9855279281049
 20
168.5349427888244
 30
0.0
 11
195.9855279281049
 21
166.5349427888244
 31
0.0
  0
LINE
  5
22A
330
37
100
AcDbEntity
  8
Sichtbare Kanten(TC_020513_DIN)
100
AcDbLine
 10
195.9855279281049
 20
166.5349427888244
 30
0.0
 11
196.9855279281049
 21
166.5349427888244
 31
0.0
  0
LINE
  5
22B
330
37
100
AcDbEntity
  8
Sichtbare Kanten(TC_020513_DIN)
100
AcDbLine
 10
196.9855279281049
 20
168.5349427888244
 30
0.0
 11
196.9855279281049
 21
166.5349427888244
 31
0.0
  0
LINE
  5
22C
330
37
100
AcDbEntity
  8
Sichtbare Kanten(TC_020513_DIN)
100
AcDbLine
 10
196.9855279281049
 20
166.5349427888244
 30
0.0
 11
198.7784211469189
 21
166.5349427888244
 31
0.0
  0
LINE
  5
22D
330
37
100
AcDbEntity
  8
Sichtbare Kanten(TC_020513_DIN)
100
AcDbLine
 10
199.0713143657325
 20
166.5349427888244
 30
0.0
 11
198.7784211469189
 21
166.5349427888244
 31
0.0
  0
LINE
  5
22E
330
37
100
AcDbEntity
  8
Sichtbare Kanten(TC_020513_DIN)
100
AcDbLine
 10
199.0713143657325
 20
168.5349427888244
 30
0.0
 11
199.0713143657325
 21
166.5349427888244
 31
0.0
  0
LINE
  5
22F
330
37
100
AcDbEntity
  8
Sichtbare Kanten(TC_020513_DIN)
100
AcDbLine
 10
189.9855279281086
 20
171.5349427888244
 30
0.0
 11
189.9855279281086
 21
176.5349427888244
 31
0.0
  0
LINE
  5
230
330
37
100
AcDbEntity
  8
Sichtbare Kanten(TC_020513_DIN)
100
AcDbLine
 10
185.4855279281086
 20
171.5349427888244
 30
0.0
 11
185.4855279281086
 21
176.5349427888244
 31
0.0
  0
LINE
  5
231
330
37
100
AcDbEntity
  8
Sichtbare Kanten(TC_020513_DIN)
100
AcDbLine
 10
185.4855279281086
 20
176.5349427888244
 30
0.0
 11
189.9855279281086
 21
176.5349427888244
 31
0.0
  0
LINE
  5
232
330
37
100
AcDbEntity
  8
Sichtbare Kanten(TC_020513_DIN)
100
AcDbLine
 10
185.4855279281086
 20
171.5349427888244
 30
0.0
 11
189.9855279281086
 21
171.5349427888244
 31
0.0
  0
LINE
  5
233
330
37
100
AcDbEntity
  8
Sichtbare Kanten(TC_020513_DIN)
100
AcDbLine
 10
189.9855279281086
 20
176.5349427888244
 30
0.0
 11
191.4855279281086
 21
178.0349427888244
 31
0.0
  0
LINE
  5
234
330
37
100
AcDbEntity
  8
Sichtbare Kanten(TC_020513_DIN)
100
AcDbLine
 10
189.9855279281086
 20
171.5349427888244
 30
0.0
 11
191.4855279281086
 21
170.0349427888244
 31
0.0
  0
LINE
  5
235
330
37
100
AcDbEntity
  8
Sichtbare Kanten(TC_020513_DIN)
100
AcDbLine
 10
235.9855279281086
 20
171.5349427888244
 30
0.0
 11
235.9855279281086
 21
176.5349427888244
 31
0.0
  0
LINE
  5
236
330
37
100
AcDbEntity
  8
Sichtbare Kanten(TC_020513_DIN)
100
AcDbLine
 10
240.4855279281087
 20
171.5349427888244
 30
0.0
 11
240.4855279281087
 21
176.5349427888244
 31
0.0
  0
LINE
  5
237
330
37
100
AcDbEntity
  8
Sichtbare Kanten(TC_020513_DIN)
100
AcDbLine
 10
235.9855279281086
 20
176.5349427888244
 30
0.0
 11
240.4855279281087
 21
176.5349427888244
 31
0.0
  0
LINE
  5
238
330
37
100
AcDbEntity
  8
Sichtbare Kanten(TC_020513_DIN)
100
AcDbLine
 10
235.9855279281086
 20
171.5349427888244
 30
0.0
 11
240.4855279281086
 21
171.5349427888244
 31
0.0
  0
LINE
  5
239
330
37
100
AcDbEntity
  8
Sichtbare Kanten(TC_020513_DIN)
100
AcDbLine
 10
235.9855279281086
 20
171.5349427888244
 30
0.0
 11
234.4855279281087
 21
170.0349427888244
 31
0.0
  0
LINE
  5
23A
330
37
100
AcDbEntity
  8
Sichtbare Kanten(TC_020513_DIN)
100
AcDbLine
 10
235.9855279281086
 20
176.5349427888244
 30
0.0
 11
234.4855279281087
 21
178.0349427888244
 31
0.0
  0
LINE
  5
23B
330
37
100
AcDbEntity
  8
Sichtbare Kanten(TC_020513_DIN)
100
AcDbLine
 10
230.1855279281018
 20
168.5349427888244
 30
0.0
 11
195.7855279281018
 21
168.5349427888244
 31
0.0
  0
LINE
  5
23C
330
37
100
AcDbEntity
  8
Sichtbare Kanten(TC_020513_DIN)
100
AcDbLine
 10
268.0513886609915
 20
170.2849427888244
 30
0.0
 11
268.0513886609915
 21
168.7849427888244
 31
0.0
  0
LINE
  5
23D
330
37
100
AcDbEntity
  8
Sichtbare Kanten(TC_020513_DIN)
100
AcDbLine
 10
268.0513886609915
 20
168.7849427888244
 30
0.0
 11
264.0513886609915
 21
168.7849427888244
 31
0.0
  0
LINE
  5
23E
330
37
100
AcDbEntity
  8
Sichtbare Kanten(TC_020513_DIN)
100
AcDbLine
 10
264.0513886609915
 20
168.7849427888244
 30
0.0
 11
264.0513886609915
 21
170.2849427888244
 31
0.0
  0
LINE
  5
23F
330
37
100
AcDbEntity
  8
Sichtbare Kanten(TC_020513_DIN)
100
AcDbLine
 10
268.0513886609915
 20
170.2849427888244
 30
0.0
 11
264.0513886609916
 21
170.2849427888244
 31
0.0
  0
LINE
  5
240
330
37
100
AcDbEntity
  8
Sichtbare Kanten(TC_020513_DIN)
100
AcDbLine
 10
269.1612456170036
 20
169.3349427888244
 30
0.0
 11
275.5490927211087
 21
169.3349427888244
 31
0.0
  0
LINE
  5
241
330
37
100
AcDbEntity
  8
Sichtbare Kanten(TC_020513_DIN)
100
AcDbLine
 10
275.5490927211087
 20
168.8349427888244
 30
0.0
 11
269.1612456170036
 21
168.8349427888244
 31
0.0
  0
LINE
  5
242
330
37
100
AcDbEntity
  8
Sichtbare Kanten(TC_020513_DIN)
100
AcDbLine
 10
269.1612456170036
 20
169.3349427888244
 30
0.0
 11
268.0513886609915
 21
169.3349427888244
 31
0.0
  0
LINE
  5
243
330
37
100
AcDbEntity
  8
Sichtbare Kanten(TC_020513_DIN)
100
AcDbLine
 10
268.0513886609915
 20
168.8349427888244
 30
0.0
 11
269.1612456170036
 21
168.8349427888244
 31
0.0
  0
LINE
  5
244
330
37
100
AcDbEntity
  8
Sichtbare Kanten(TC_020513_DIN)
100
AcDbLine
 10
275.5490927211087
 20
169.3349427888244
 30
0.0
 11
275.5490927211087
 21
168.8349427888244
 31
0.0
  0
LINE
  5
245
330
37
100
AcDbEntity
  8
Sichtbare Kanten(TC_020513_DIN)
100
AcDbLine
 10
246.4855279281195
 20
169.0349427888244
 30
0.0
 11
246.4855279281194
 21
169.5349427888244
 31
0.0
  0
LINE
  5
246
330
37
100
AcDbEntity
  8
Sichtbare Kanten(TC_020513_DIN)
100
AcDbLine
 10
246.4855279281194
 20
169.5349427888244
 30
0.0
 11
246.4855279281196
 21
170.2349427888244
 31
0.0
  0
LINE
  5
247
330
37
100
AcDbEntity
  8
Sichtbare Kanten(TC_020513_DIN)
100
AcDbLine
 10
246.4855279281196
 20
167.8349427888244
 30
0.0
 11
246.4855279281194
 21
168.5349427888244
 31
0.0
  0
LINE
  5
248
330
37
100
AcDbEntity
  8
Sichtbare Kanten(TC_020513_DIN)
100
AcDbLine
 10
246.4855279281194
 20
168.5349427888244
 30
0.0
 11
246.4855279281195
 21
169.0349427888244
 31
0.0
  0
LINE
  5
249
330
37
100
AcDbEntity
  8
Sichtbare Kanten(TC_020513_DIN)
100
AcDbLine
 10
242.4855279281195
 20
169.5349427888244
 30
0.0
 11
242.4855279281196
 21
170.2349427888244
 31
0.0
  0
LINE
  5
24A
330
37
100
AcDbEntity
  8
Sichtbare Kanten(TC_020513_DIN)
100
AcDbLine
 10
242.4855279281195
 20
169.0349427888244
 30
0.0
 11
242.4855279281195
 21
169.5349427888244
 31
0.0
  0
LINE
  5
24B
330
37
100
AcDbEntity
  8
Sichtbare Kanten(TC_020513_DIN)
100
AcDbLine
 10
242.4855279281195
 20
168.5349427888244
 30
0.0
 11
242.4855279281195
 21
169.0349427888244
 31
0.0
  0
LINE
  5
24C
330
37
100
AcDbEntity
  8
Sichtbare Kanten(TC_020513_DIN)
100
AcDbLine
 10
242.4855279281196
 20
167.8349427888244
 30
0.0
 11
242.4855279281195
 21
168.5349427888244
 31
0.0
  0
LINE
  5
24D
330
37
100
AcDbEntity
  8
Sichtbare Kanten(TC_020513_DIN)
100
AcDbLine
 10
246.4855279281195
 20
169.0349427888244
 30
0.0
 11
242.4855279281195
 21
169.0349427888244
 31
0.0
  0
LINE
  5
24E
330
37
100
AcDbEntity
  8
Sichtbare Kanten(TC_020513_DIN)
100
AcDbLine
 10
246.4855279281196
 20
170.2349427888244
 30
0.0
 11
242.4855279281196
 21
170.2349427888244
 31
0.0
  0
LINE
  5
24F
330
37
100
AcDbEntity
  8
Sichtbare Kanten(TC_020513_DIN)
100
AcDbLine
 10
246.4855279281196
 20
167.8349427888244
 30
0.0
 11
242.4855279281196
 21
167.8349427888244
 31
0.0
  0
ARC
  5
250
330
37
100
AcDbEntity
  8
Sichtbare Kanten(TC_020513_DIN)
100
AcDbCircle
 10
242.1132466048506
 20
171.5349427888244
 30
0.0
 40
1.5
100
AcDbArc
 50
235.1500954209538
 51
270.0000000000013
  0
LINE
  5
251
330
37
100
AcDbEntity
  8
Sichtbare Kanten(TC_020513_DIN)
100
AcDbLine
 10
246.4855279281196
 20
169.0349427888244
 30
0.0
 11
247.1051108031417
 21
169.0349427888244
 31
0.0
  0
LINE
  5
252
330
37
100
AcDbEntity
  8
Sichtbare Kanten(TC_020513_DIN)
100
AcDbLine
 10
246.4855279281196
 20
168.0349427888244
 30
0.0
 11
247.1051108031418
 21
168.0349427888244
 31
0.0
  0
LINE
  5
253
330
37
100
AcDbEntity
  8
Sichtbare Kanten(TC_020513_DIN)
100
AcDbLine
 10
264.051388660992
 20
169.0349427888244
 30
0.0
 11
252.9381887349536
 21
169.0349427888244
 31
0.0
  0
LINE
  5
254
330
37
100
AcDbEntity
  8
Sichtbare Kanten(TC_020513_DIN)
100
AcDbLine
 10
264.051388660992
 20
170.0349427888244
 30
0.0
 11
252.9381887349536
 21
170.0349427888244
 31
0.0
  0
LINE
  5
255
330
37
100
AcDbEntity
  8
Sichtbare Kanten(TC_020513_DIN)
100
AcDbLine
 10
241.4551188945353
 20
169.0349427888244
 30
0.0
 11
242.4855279281196
 21
169.0349427888244
 31
0.0
  0
LINE
  5
256
330
37
100
AcDbEntity
  8
Sichtbare Kanten(TC_020513_DIN)
100
AcDbLine
 10
241.4551188945353
 20
168.0349427888244
 30
0.0
 11
242.4855279281196
 21
168.0349427888244
 31
0.0
  0
ARC
  5
257
330
37
100
AcDbEntity
  8
Sichtbare Kanten(TC_020513_DIN)
100
AcDbCircle
 10
242.1132466048506
 20
171.5349427888244
 30
0.0
 40
2.5
100
AcDbArc
 50
235.1500954209535
 51
270.0
  0
ARC
  5
258
330
37
100
AcDbEntity
  8
Sichtbare Kanten(TC_020513_DIN)
100
AcDbCircle
 10
237.9855279281196
 20
169.5349427888244
 30
0.0
 40
1.5
100
AcDbArc
 50
221.8103148957789
 51
289.8529408397556
  0
LINE
  5
259
330
37
100
AcDbEntity
  8
Sichtbare Kanten(TC_020513_DIN)
100
AcDbLine
 10
238.4949386408033
 20
168.1240917244654
 30
0.0
 11
240.6061010400625
 21
168.8863612294228
 31
0.0
  0
LINE
  5
25A
330
37
100
AcDbEntity
  8
Sichtbare Kanten(TC_020513_DIN)
100
AcDbLine
 10
238.8345457825925
 20
167.183524348226
 30
0.0
 11
240.9457081818517
 21
167.9457938531835
 31
0.0
  0
ARC
  5
25B
330
37
100
AcDbEntity
  8
Sichtbare Kanten(TC_020513_DIN)
100
AcDbCircle
 10
237.9855279281196
 20
169.5349427888244
 30
0.0
 40
1.5
100
AcDbArc
 50
55.15009542095378
 51
138.1896851042221
  0
ARC
  5
25C
330
37
100
AcDbEntity
  8
Sichtbare Kanten(TC_020513_DIN)
100
AcDbCircle
 10
237.9855279281196
 20
169.5349427888244
 30
0.0
 40
2.5
100
AcDbArc
 50
126.8698976458445
 51
156.4218215217979
  0
ARC
  5
25D
330
37
100
AcDbEntity
  8
Sichtbare Kanten(TC_020513_DIN)
100
AcDbCircle
 10
237.9855279281196
 20
169.5349427888244
 30
0.0
 40
2.5
100
AcDbArc
 50
203.5781784782012
 51
289.8529408397553
  0
ARC
  5
25E
330
37
100
AcDbEntity
  8
Sichtbare Kanten(TC_020513_DIN)
100
AcDbCircle
 10
241.4551188945353
 20
166.5349427888244
 30
0.0
 40
1.500000000000003
100
AcDbArc
 50
90.0
 51
109.8529408397555
  0
LINE
  5
25F
330
37
100
AcDbEntity
  8
Sichtbare Kanten(TC_020513_DIN)
100
AcDbLine
 10
240.6846751762792
 20
169.4833132722037
 30
0.0
 11
238.8426707852625
 21
170.7659204987968
 31
0.0
  0
LINE
  5
260
330
37
100
AcDbEntity
  8
Sichtbare Kanten(TC_020513_DIN)
100
AcDbLine
 10
241.2561037477078
 20
170.303965078852
 30
0.0
 11
239.4882466048506
 21
171.5349427888244
 31
0.0
  0
ARC
  5
261
330
37
100
AcDbEntity
  8
Sichtbare Kanten(TC_020513_DIN)
100
AcDbCircle
 10
241.4551188945353
 20
166.5349427888244
 30
0.0
 40
2.500000000000003
100
AcDbArc
 50
90.00000000000079
 51
109.852940839756
  0
LINE
  5
262
330
37
100
AcDbEntity
  8
Sichtbare Kanten(TC_020513_DIN)
100
AcDbLine
 10
251.9381896886279
 20
170.0349427888244
 30
0.0
 11
246.4855279281196
 21
170.0349427888244
 31
0.0
  0
LINE
  5
263
330
37
100
AcDbEntity
  8
Sichtbare Kanten(TC_020513_DIN)
100
AcDbLine
 10
242.4855279281196
 20
169.0349427888244
 30
0.0
 11
242.1132466048506
 21
169.0349427888244
 31
0.0
  0
LINE
  5
264
330
37
100
AcDbEntity
  8
Sichtbare Kanten(TC_020513_DIN)
100
AcDbLine
 10
242.4855279281196
 20
170.0349427888244
 30
0.0
 11
242.1132466048506
 21
170.0349427888244
 31
0.0
  0
LINE
  5
265
330
37
100
AcDbEntity
  8
Sichtbare Kanten(TC_020513_DIN)
100
AcDbLine
 10
247.1051108031418
 20
169.0349427888244
 30
0.0
 11
247.1051108031418
 21
168.0349427888244
 31
0.0
  0
LINE
  5
266
330
37
100
AcDbEntity
  8
Sichtbare Kanten(TC_020513_DIN)
100
AcDbLine
 10
251.9381896886279
 20
169.0349427888244
 30
0.0
 11
246.4855279281196
 21
169.0349427888244
 31
0.0
  0
POLYLINE
  5
267
330
37
100
AcDbEntity
  8
Bruchlinien(TC_020513_DIN)
100
AcDb2dPolyline
 66
     1
 10
0.0
 20
0.0
 30
0.0
 70
   128
  0
VERTEX
  5
268
330
267
100
AcDbEntity
  8
Bruchlinien(TC_020513_DIN)
100
AcDbVertex
100
AcDb2dVertex
 10
251.9381896886279
 20
165.8599429557174
 30
0.0
  0
VERTEX
  5
269
330
267
100
AcDbEntity
  8
Bruchlinien(TC_020513_DIN)
100
AcDbVertex
100
AcDb2dVertex
 10
251.9381896886279
 20
169.3236180374473
 30
0.0
  0
VERTEX
  5
26B
330
267
100
AcDbEntity
  8
Bruchlinien(TC_020513_DIN)
100
AcDbVertex
100
AcDb2dVertex
 10
252.1881882581165
 20
169.3906053135246
 30
0.0
  0
VERTEX
  5
26C
330
267
100
AcDbEntity
  8
Bruchlinien(TC_020513_DIN)
100
AcDbVertex
100
AcDb2dVertex
 10
251.6881887349536
 20
169.6792804429382
 30
0.0
  0
VERTEX
  5
26D
330
267
100
AcDbEntity
  8
Bruchlinien(TC_020513_DIN)
100
AcDbVertex
100
AcDb2dVertex
 10
251.9381896886279
 20
169.7462677190154
 30
0.0
  0
VERTEX
  5
26E
330
267
100
AcDbEntity
  8
Bruchlinien(TC_020513_DIN)
100
AcDbVertex
100
AcDb2dVertex
 10
251.9381896886279
 20
173.2099428007453
 30
0.0
  0
SEQEND
  5
26A
330
267
100
AcDbEntity
  8
Bruchlinien(TC_020513_DIN)
  0
POLYLINE
  5
26F
330
37
100
AcDbEntity
  8
Bruchlinien(TC_020513_DIN)
100
AcDb2dPolyline
 66
     1
 10
0.0
 20
0.0
 30
0.0
 70
   128
  0
VERTEX
  5
270
330
26F
100
AcDbEntity
  8
Bruchlinien(TC_020513_DIN)
100
AcDbVertex
100
AcDb2dVertex
 10
252.9381887349536
 20
165.8599429557174
 30
0.0
  0
VERTEX
  5
271
330
26F
100
AcDbEntity
  8
Bruchlinien(TC_020513_DIN)
100
AcDbVertex
100
AcDb2dVertex
 10
252.9381887349536
 20
169.3236180374473
 30
0.0
  0
VERTEX
  5
273
330
26F
100
AcDbEntity
  8
Bruchlinien(TC_020513_DIN)
100
AcDbVertex
100
AcDb2dVertex
 10
253.1881896886279
 20
169.3906053135246
 30
0.0
  0
VERTEX
  5
274
330
26F
100
AcDbEntity
  8
Bruchlinien(TC_020513_DIN)
100
AcDbVertex
100
AcDb2dVertex
 10
252.6881901654651
 20
169.6792804429382
 30
0.0
  0
VERTEX
  5
275
330
26F
100
AcDbEntity
  8
Bruchlinien(TC_020513_DIN)
100
AcDbVertex
100
AcDb2dVertex
 10
252.9381887349536
 20
169.7462677190154
 30
0.0
  0
VERTEX
  5
276
330
26F
100
AcDbEntity
  8
Bruchlinien(TC_020513_DIN)
100
AcDbVertex
100
AcDb2dVertex
 10
252.9381887349536
 20
173.2099428007453
 30
0.0
  0
SEQEND
  5
272
330
26F
100
AcDbEntity
  8
Bruchlinien(TC_020513_DIN)
  0
LINE
  5
277
330
37
100
AcDbEntity
  8
Sichtbare Kanten(TC_020513_DIN)
100
AcDbLine
 10
86.18020478721122
 20
82.95186844892908
 30
0.0
 11
86.18020478721122
 21
91.60331142398574
 31
0.0
  0
ARC
  5
278
330
37
100
AcDbEntity
  8
Sichtbare Kanten(TC_020513_DIN)
100
AcDbCircle
 10
79.30520478721122
 20
84.46629152585215
 30
0.0
 40
0.624999999999999
100
AcDbArc
 50
180.0
 51
0.0
  0
LINE
  5
279
330
37
100
AcDbEntity
  8
Sichtbare Kanten(TC_020513_DIN)
100
AcDbLine
 10
89.6175313206422
 20
83.85281014995639
 30
0.0
 11
87.1175313206422
 21
82.41050245764869
 31
0.0
  0
ARC
  5
27A
330
37
100
AcDbEntity
  8
Sichtbare Kanten(TC_020513_DIN)
100
AcDbCircle
 10
79.30520478721122
 20
93.04561911629338
 30
0.0
 40
0.625
100
AcDbArc
 50
35.90957617703177
 51
180.0
  0
LINE
  5
27B
330
37
100
AcDbEntity
  8
Sichtbare Kanten(TC_020513_DIN)
100
AcDbLine
 10
87.43020478721122
 20
84.03399974795808
 30
0.0
 11
88.99287825378022
 21
84.93554213251712
 31
0.0
  0
LINE
  5
27C
330
37
100
AcDbEntity
  8
Sichtbare Kanten(TC_020513_DIN)
100
AcDbLine
 10
87.43020478721122
 20
86.65258993645739
 30
0.0
 11
87.43020478721122
 21
84.03399974795808
 31
0.0
  0
LINE
  5
27D
330
37
100
AcDbEntity
  8
Sichtbare Kanten(TC_020513_DIN)
100
AcDbLine
 10
89.30520478721122
 20
86.65258993645739
 30
0.0
 11
87.43020478721122
 21
86.65258993645739
 31
0.0
  0
ARC
  5
27E
330
37
100
AcDbEntity
  8
Sichtbare Kanten(TC_020513_DIN)
100
AcDbCircle
 10
84.30520478721122
 20
93.0456191162934
 30
0.0
 40
0.6250000000000007
100
AcDbArc
 50
0.0
 51
144.0904238229682
  0
LINE
  5
27F
330
37
100
AcDbEntity
  8
Sichtbare Kanten(TC_020513_DIN)
100
AcDbLine
 10
87.43020478721122
 20
87.90258993645739
 30
0.0
 11
89.30520478721122
 21
87.90258993645739
 31
0.0
  0
LINE
  5
280
330
37
100
AcDbEntity
  8
Sichtbare Kanten(TC_020513_DIN)
100
AcDbLine
 10
87.43020478721122
 20
90.52118012495668
 30
0.0
 11
87.43020478721122
 21
87.90258993645739
 31
0.0
  0
LINE
  5
281
330
37
100
AcDbEntity
  8
Sichtbare Kanten(TC_020513_DIN)
100
AcDbLine
 10
88.99287825378022
 20
89.61963774039766
 30
0.0
 11
87.43020478721122
 21
90.52118012495668
 31
0.0
  0
ARC
  5
282
330
37
100
AcDbEntity
  8
Sichtbare Kanten(TC_020513_DIN)
100
AcDbCircle
 10
84.30520478721122
 20
81.50956075662136
 30
0.0
 40
0.625
100
AcDbArc
 50
180.0
 51
0.0
  0
LINE
  5
283
330
37
100
AcDbEntity
  8
Sichtbare Kanten(TC_020513_DIN)
100
AcDbLine
 10
87.1175313206422
 20
92.14467741526608
 30
0.0
 11
89.6175313206422
 21
90.70236972295839
 31
0.0
  0
ARC
  5
284
330
37
100
AcDbEntity
  8
Sichtbare Kanten(TC_020513_DIN)
100
AcDbCircle
 10
76.68020478721122
 20
91.53119603937032
 30
0.0
 40
0.625
100
AcDbArc
 50
0.0
 51
180.0
  0
ARC
  5
285
330
37
100
AcDbEntity
  8
Sichtbare Kanten(TC_020513_DIN)
100
AcDbCircle
 10
81.80520478721122
 20
80.06725306431366
 30
0.0
 40
0.6249999999999978
100
AcDbArc
 50
240.0183606311511
 51
60.01836063115117
  0
LINE
  5
286
330
37
100
AcDbEntity
  8
Sichtbare Kanten(TC_020513_DIN)
100
AcDbLine
 10
73.55520478721122
 20
84.46629152585215
 30
0.0
 11
73.55520478721122
 21
90.08888834706263
 31
0.0
  0
ARC
  5
287
330
37
100
AcDbEntity
  8
Sichtbare Kanten(TC_020513_DIN)
100
AcDbCircle
 10
76.68020478721122
 20
83.02398383354443
 30
0.0
 40
0.625000000000001
100
AcDbArc
 50
180.0
 51
240.0183606311497
  0
LINE
  5
288
330
37
100
AcDbEntity
  8
Sichtbare Kanten(TC_020513_DIN)
100
AcDbLine
 10
74.80520478721122
 20
90.08888834706263
 30
0.0
 11
74.80520478721122
 21
84.46629152585215
 31
0.0
  0
LINE
  5
289
330
37
100
AcDbEntity
  8
Sichtbare Kanten(TC_020513_DIN)
100
AcDbLine
 10
66.80589903886152
 20
87.27758993645739
 30
0.0
 11
81.80520478721122
 21
78.62414431240948
 31
0.0
  0
LINE
  5
28A
330
37
100
AcDbEntity
  8
Sichtbare Kanten(TC_020513_DIN)
100
AcDbLine
 10
81.80520478721122
 20
78.62414431240948
 30
0.0
 11
96.80451053556092
 21
87.27758993645739
 31
0.0
  0
LINE
  5
28B
330
37
100
AcDbEntity
  8
Sichtbare Kanten(TC_020513_DIN)
100
AcDbLine
 10
96.80451053556092
 20
87.27758993645739
 30
0.0
 11
81.80520478721122
 21
95.93103556050529
 31
0.0
  0
LINE
  5
28C
330
37
100
AcDbEntity
  8
Sichtbare Kanten(TC_020513_DIN)
100
AcDbLine
 10
81.80520478721122
 20
95.93103556050529
 30
0.0
 11
66.80589903886152
 21
87.27758993645739
 31
0.0
  0
LINE
  5
28D
330
37
100
AcDbEntity
  8
Sichtbare Kanten(TC_020513_DIN)
100
AcDbLine
 10
81.80520478721122
 20
77.90258993645739
 30
0.0
 11
65.55520478721122
 21
87.27758993645739
 31
0.0
  0
LINE
  5
28E
330
37
100
AcDbEntity
  8
Sichtbare Kanten(TC_020513_DIN)
100
AcDbLine
 10
98.05520478721122
 20
87.27758993645739
 30
0.0
 11
81.80520478721122
 21
77.90258993645739
 31
0.0
  0
LINE
  5
28F
330
37
100
AcDbEntity
  8
Sichtbare Kanten(TC_020513_DIN)
100
AcDbLine
 10
81.80520478721122
 20
96.65258993645739
 30
0.0
 11
98.05520478721122
 21
87.27758993645739
 31
0.0
  0
LINE
  5
290
330
37
100
AcDbEntity
  8
Sichtbare Kanten(TC_020513_DIN)
100
AcDbLine
 10
65.55520478721122
 20
87.27758993645739
 30
0.0
 11
81.80520478721122
 21
96.65258993645739
 31
0.0
  0
LINE
  5
291
330
37
100
AcDbEntity
  8
Sichtbare Kanten(TC_020513_DIN)
100
AcDbLine
 10
76.05520478721122
 20
83.02398383354447
 30
0.0
 11
76.05520478721122
 21
91.53119603937032
 31
0.0
  0
ARC
  5
292
330
37
100
AcDbEntity
  8
Sichtbare Kanten(TC_020513_DIN)
100
AcDbCircle
 10
74.18020478721122
 20
84.46629152585215
 30
0.0
 40
0.625
100
AcDbArc
 50
180.0
 51
0.0
  0
LINE
  5
293
330
37
100
AcDbEntity
  8
Sichtbare Kanten(TC_020513_DIN)
100
AcDbLine
 10
81.49287825378024
 20
79.52588707303331
 30
0.0
 11
76.36787825378023
 21
82.48261784226407
 31
0.0
  0
ARC
  5
294
330
37
100
AcDbEntity
  8
Sichtbare Kanten(TC_020513_DIN)
100
AcDbCircle
 10
74.18020478721122
 20
90.08888834706262
 30
0.0
 40
0.625
100
AcDbArc
 50
0.0
 51
180.0
  0
LINE
  5
295
330
37
100
AcDbEntity
  8
Sichtbare Kanten(TC_020513_DIN)
100
AcDbLine
 10
77.30520478721122
 20
83.38496128641963
 30
0.0
 11
82.1175313206422
 21
80.60861905559406
 31
0.0
  0
LINE
  5
296
330
37
100
AcDbEntity
  8
Sichtbare Kanten(TC_020513_DIN)
100
AcDbLine
 10
77.30520478721122
 20
91.53119603937032
 30
0.0
 11
77.30520478721122
 21
83.38496128641963
 31
0.0
  0
ARC
  5
297
330
37
100
AcDbEntity
  8
Sichtbare Kanten(TC_020513_DIN)
100
AcDbCircle
 10
86.80520478721122
 20
91.60331142398574
 30
0.0
 40
0.625
100
AcDbArc
 50
60.01836063115115
 51
180.0
  0
LINE
  5
298
330
37
100
AcDbEntity
  8
Sichtbare Kanten(TC_020513_DIN)
100
AcDbLine
 10
83.68020478721122
 20
91.1168896259342
 30
0.0
 11
81.80520478721122
 21
88.52758993645739
 31
0.0
  0
LINE
  5
299
330
37
100
AcDbEntity
  8
Sichtbare Kanten(TC_020513_DIN)
100
AcDbLine
 10
83.68020478721122
 20
81.50956075662136
 30
0.0
 11
83.68020478721122
 21
91.1168896259342
 31
0.0
  0
ARC
  5
29A
330
37
100
AcDbEntity
  8
Sichtbare Kanten(TC_020513_DIN)
100
AcDbCircle
 10
89.30520478721122
 20
90.16100373167802
 30
0.0
 40
0.625
100
AcDbArc
 50
240.0183606311511
 51
60.01836063115117
  0
LINE
  5
29B
330
37
100
AcDbEntity
  8
Sichtbare Kanten(TC_020513_DIN)
100
AcDbLine
 10
84.93020478721122
 20
93.0456191162934
 30
0.0
 11
84.93020478721122
 21
81.50956075662136
 31
0.0
  0
ARC
  5
29C
330
37
100
AcDbEntity
  8
Sichtbare Kanten(TC_020513_DIN)
100
AcDbCircle
 10
89.30520478721122
 20
87.27758993645739
 30
0.0
 40
0.625
100
AcDbArc
 50
270.0
 51
90.0
  0
LINE
  5
29D
330
37
100
AcDbEntity
  8
Sichtbare Kanten(TC_020513_DIN)
100
AcDbLine
 10
81.80520478721122
 20
90.65884912419123
 30
0.0
 11
83.7989900213936
 21
93.41218645099225
 31
0.0
  0
LINE
  5
29E
330
37
100
AcDbEntity
  8
Sichtbare Kanten(TC_020513_DIN)
100
AcDbLine
 10
79.81141955302885
 20
93.41218645099223
 30
0.0
 11
81.80520478721122
 21
90.65884912419123
 31
0.0
  0
ARC
  5
29F
330
37
100
AcDbEntity
  8
Sichtbare Kanten(TC_020513_DIN)
100
AcDbCircle
 10
89.30520478721122
 20
84.39417614123675
 30
0.0
 40
0.6250000000000014
100
AcDbArc
 50
299.9816393688488
 51
119.9816393688488
  0
LINE
  5
2A0
330
37
100
AcDbEntity
  8
Sichtbare Kanten(TC_020513_DIN)
100
AcDbLine
 10
78.68020478721122
 20
84.46629152585215
 30
0.0
 11
78.68020478721122
 21
93.0456191162934
 31
0.0
  0
ARC
  5
2A1
330
37
100
AcDbEntity
  8
Sichtbare Kanten(TC_020513_DIN)
100
AcDbCircle
 10
86.80520478721122
 20
82.95186844892908
 30
0.0
 40
0.625
100
AcDbArc
 50
180.0
 51
299.9816393688488
  0
LINE
  5
2A2
330
37
100
AcDbEntity
  8
Sichtbare Kanten(TC_020513_DIN)
100
AcDbLine
 10
79.93020478721122
 20
91.1168896259342
 30
0.0
 11
79.93020478721122
 21
84.46629152585215
 31
0.0
  0
LINE
  5
2A3
330
37
100
AcDbEntity
  8
Sichtbare Kanten(TC_020513_DIN)
100
AcDbLine
 10
81.80520478721122
 20
88.52758993645739
 30
0.0
 11
79.93020478721122
 21
91.1168896259342
 31
0.0
  0
ARC
  5
2A4
330
37
100
AcDbEntity
  8
Sichtbare Kanten(TC_020513_DIN)
100
AcDbCircle
 10
81.80520478721124
 20
63.25246367060739
 30
0.0
 40
1.750000000000039
100
AcDbArc
 50
225.0000000000006
 51
253.3984504009793
  0
LINE
  5
2A5
330
37
100
AcDbEntity
  8
Sichtbare Kanten(TC_020513_DIN)
100
AcDbLine
 10
86.80520478721122
 20
65.77758993645443
 30
0.0
 11
83.04264165428769
 21
62.01502680353089
 31
0.0
  0
ARC
  5
2A6
330
37
100
AcDbEntity
  8
Sichtbare Kanten(TC_020513_DIN)
100
AcDbCircle
 10
81.80520478721129
 20
63.25246367060722
 30
0.0
 40
1.749999999999857
100
AcDbArc
 50
286.6015495990195
 51
315.0000000000014
  0
ARC
  5
2A7
330
37
100
AcDbEntity
  8
Sichtbare Kanten(TC_020513_DIN)
100
AcDbCircle
 10
81.80520478721122
 20
64.02758993645443
 30
0.0
 40
1.249999999999996
100
AcDbArc
 50
293.5781784782014
 51
246.4218215217978
  0
LINE
  5
2A8
330
37
100
AcDbEntity
  8
Sichtbare Kanten(TC_020513_DIN)
100
AcDbLine
 10
80.56776792013478
 20
62.01502680353089
 30
0.0
 11
76.80520478721122
 21
65.77758993645443
 31
0.0
  0
LINE
  5
2A9
330
37
100
AcDbEntity
  8
Sichtbare Kanten(TC_020513_DIN)
100
AcDbLine
 10
121.3052047872112
 20
110.2775899364554
 30
0.0
 11
116.3052047872112
 21
110.2775899364554
 31
0.0
  0
LINE
  5
2AA
330
37
100
AcDbEntity
  8
Sichtbare Kanten(TC_020513_DIN)
100
AcDbLine
 10
121.3052047872112
 20
114.7775899364554
 30
0.0
 11
116.3052047872112
 21
114.7775899364554
 31
0.0
  0
LINE
  5
2AB
330
37
100
AcDbEntity
  8
Sichtbare Kanten(TC_020513_DIN)
100
AcDbLine
 10
42.30520478721122
 20
110.2775899364554
 30
0.0
 11
47.30520478721122
 21
110.2775899364554
 31
0.0
  0
LINE
  5
2AC
330
37
100
AcDbEntity
  8
Sichtbare Kanten(TC_020513_DIN)
100
AcDbLine
 10
42.30520478721122
 20
114.7775899364554
 30
0.0
 11
47.30520478721122
 21
114.7775899364554
 31
0.0
  0
LINE
  5
2AD
330
37
100
AcDbEntity
  8
Sichtbare Kanten(TC_020513_DIN)
100
AcDbLine
 10
47.30520478721122
 20
114.7775899364554
 30
0.0
 11
47.30520478721122
 21
110.2775899364554
 31
0.0
  0
LINE
  5
2AE
330
37
100
AcDbEntity
  8
Sichtbare Kanten(TC_020513_DIN)
100
AcDbLine
 10
42.30520478721122
 20
114.7775899364554
 30
0.0
 11
42.30520478721122
 21
110.2775899364554
 31
0.0
  0
LINE
  5
2AF
330
37
100
AcDbEntity
  8
Sichtbare Kanten(TC_020513_DIN)
100
AcDbLine
 10
47.30520478721124
 20
110.2775899364554
 30
0.0
 11
48.80520478721123
 21
108.7775899364554
 31
0.0
  0
LINE
  5
2B0
330
37
100
AcDbEntity
  8
Sichtbare Kanten(TC_020513_DIN)
100
AcDbLine
 10
42.30520478721121
 20
110.2775899364554
 30
0.0
 11
40.80520478721121
 21
108.7775899364554
 31
0.0
  0
LINE
  5
2B1
330
37
100
AcDbEntity
  8
Sichtbare Kanten(TC_020513_DIN)
100
AcDbLine
 10
116.3052047872112
 20
110.2775899364554
 30
0.0
 11
116.3052047872112
 21
114.7775899364554
 31
0.0
  0
LINE
  5
2B2
330
37
100
AcDbEntity
  8
Sichtbare Kanten(TC_020513_DIN)
100
AcDbLine
 10
121.3052047872112
 20
110.2775899364554
 30
0.0
 11
121.3052047872112
 21
114.7775899364554
 31
0.0
  0
LINE
  5
2B3
330
37
100
AcDbEntity
  8
Sichtbare Kanten(TC_020513_DIN)
100
AcDbLine
 10
121.3052047872112
 20
110.2775899364554
 30
0.0
 11
122.8052047872112
 21
108.7775899364554
 31
0.0
  0
LINE
  5
2B4
330
37
100
AcDbEntity
  8
Sichtbare Kanten(TC_020513_DIN)
100
AcDbLine
 10
116.3052047872112
 20
110.2775899364554
 30
0.0
 11
114.8052047872112
 21
108.7775899364554
 31
0.0
  0
LINE
  5
2B5
330
37
100
AcDbEntity
  8
Sichtbare Kanten(TC_020513_DIN)
100
AcDbLine
 10
42.30520478721122
 20
64.27758993645546
 30
0.0
 11
47.30520478721122
 21
64.27758993645546
 31
0.0
  0
LINE
  5
2B6
330
37
100
AcDbEntity
  8
Sichtbare Kanten(TC_020513_DIN)
100
AcDbLine
 10
42.30520478721122
 20
59.77758993645545
 30
0.0
 11
47.30520478721122
 21
59.77758993645545
 31
0.0
  0
LINE
  5
2B7
330
37
100
AcDbEntity
  8
Sichtbare Kanten(TC_020513_DIN)
100
AcDbLine
 10
47.30520478721122
 20
64.27758993645546
 30
0.0
 11
47.30520478721122
 21
59.77758993645545
 31
0.0
  0
LINE
  5
2B8
330
37
100
AcDbEntity
  8
Sichtbare Kanten(TC_020513_DIN)
100
AcDbLine
 10
42.30520478721122
 20
64.27758993645546
 30
0.0
 11
42.30520478721122
 21
59.77758993645545
 31
0.0
  0
LINE
  5
2B9
330
37
100
AcDbEntity
  8
Sichtbare Kanten(TC_020513_DIN)
100
AcDbLine
 10
42.30520478721121
 20
64.27758993645546
 30
0.0
 11
40.80520478721121
 21
65.77758993645547
 31
0.0
  0
LINE
  5
2BA
330
37
100
AcDbEntity
  8
Sichtbare Kanten(TC_020513_DIN)
100
AcDbLine
 10
47.30520478721124
 20
64.27758993645546
 30
0.0
 11
48.80520478721123
 21
65.77758993645547
 31
0.0
  0
LINE
  5
2BB
330
37
100
AcDbEntity
  8
Sichtbare Kanten(TC_020513_DIN)
100
AcDbLine
 10
121.3052047872112
 20
64.27758993645546
 30
0.0
 11
116.3052047872112
 21
64.27758993645546
 31
0.0
  0
LINE
  5
2BC
330
37
100
AcDbEntity
  8
Sichtbare Kanten(TC_020513_DIN)
100
AcDbLine
 10
121.3052047872112
 20
59.77758993645545
 30
0.0
 11
116.3052047872112
 21
59.77758993645545
 31
0.0
  0
LINE
  5
2BD
330
37
100
AcDbEntity
  8
Sichtbare Kanten(TC_020513_DIN)
100
AcDbLine
 10
116.3052047872112
 20
59.77758993645545
 30
0.0
 11
116.3052047872112
 21
64.27758993645546
 31
0.0
  0
LINE
  5
2BE
330
37
100
AcDbEntity
  8
Sichtbare Kanten(TC_020513_DIN)
100
AcDbLine
 10
121.3052047872112
 20
59.77758993645545
 30
0.0
 11
121.3052047872112
 21
64.27758993645546
 31
0.0
  0
LINE
  5
2BF
330
37
100
AcDbEntity
  8
Sichtbare Kanten(TC_020513_DIN)
100
AcDbLine
 10
116.3052047872112
 20
64.27758993645546
 30
0.0
 11
114.8052047872112
 21
65.77758993645547
 31
0.0
  0
LINE
  5
2C0
330
37
100
AcDbEntity
  8
Sichtbare Kanten(TC_020513_DIN)
100
AcDbLine
 10
121.3052047872112
 20
64.27758993645546
 30
0.0
 11
122.8052047872112
 21
65.77758993645547
 31
0.0
  0
ARC
  5
2C1
330
37
100
AcDbEntity
  8
Sichtbare Kanten(TC_020513_DIN)
100
AcDbCircle
 10
137.5052047872112
 20
104.4775899364568
 30
0.0
 40
4.299999999999988
100
AcDbArc
 50
0.0
 51
90.0
  0
ARC
  5
2C2
330
37
100
AcDbEntity
  8
Sichtbare Kanten(TC_020513_DIN)
100
AcDbCircle
 10
137.5052047872112
 20
70.07758993645679
 30
0.0
 40
4.299999999999992
100
AcDbArc
 50
270.0
 51
0.0
  0
ARC
  5
2C3
330
37
100
AcDbEntity
  8
Sichtbare Kanten(TC_020513_DIN)
100
AcDbCircle
 10
26.10520478721122
 20
70.07758993645677
 30
0.0
 40
4.299999999999988
100
AcDbArc
 50
180.0
 51
270.0000000000002
  0
ARC
  5
2C4
330
37
100
AcDbEntity
  8
Sichtbare Kanten(TC_020513_DIN)
100
AcDbCircle
 10
26.10520478721122
 20
104.4775899364568
 30
0.0
 40
4.299999999999992
100
AcDbArc
 50
90.0
 51
180.0
  0
LINE
  5
2C5
330
37
100
AcDbEntity
  8
Sichtbare Kanten(TC_020513_DIN)
100
AcDbLine
 10
137.5052047872112
 20
108.7775899364568
 30
0.0
 11
26.10520478721122
 21
108.7775899364568
 31
0.0
  0
LINE
  5
2C6
330
37
100
AcDbEntity
  8
Sichtbare Kanten(TC_020513_DIN)
100
AcDbLine
 10
21.80520478721123
 20
104.4775899364568
 30
0.0
 11
21.80520478721122
 21
70.07758993645679
 31
0.0
  0
LINE
  5
2C7
330
37
100
AcDbEntity
  8
Sichtbare Kanten(TC_020513_DIN)
100
AcDbLine
 10
26.10520478721122
 20
65.77758993645679
 30
0.0
 11
137.5052047872112
 21
65.77758993645679
 31
0.0
  0
LINE
  5
2C8
330
37
100
AcDbEntity
  8
Sichtbare Kanten(TC_020513_DIN)
100
AcDbLine
 10
141.8052047872112
 20
70.07758993645679
 30
0.0
 11
141.8052047872112
 21
104.4775899364568
 31
0.0
  0
LINE
  5
2C9
330
37
100
AcDbEntity
  8
Sichtbare Kanten(TC_020513_DIN)
100
AcDbLine
 10
82.55520478721122
 20
32.21172920358178
 30
0.0
 11
81.05520478721123
 21
32.21172920358178
 31
0.0
  0
LINE
  5
2CA
330
37
100
AcDbEntity
  8
Sichtbare Kanten(TC_020513_DIN)
100
AcDbLine
 10
81.05520478721121
 20
32.21172920358178
 30
0.0
 11
79.55520478721123
 21
32.21172920358178
 31
0.0
  0
LINE
  5
2CB
330
37
100
AcDbEntity
  8
Sichtbare Kanten(TC_020513_DIN)
100
AcDbLine
 10
81.05520478721123
 20
36.21172920358179
 30
0.0
 11
82.55520478721122
 21
36.21172920358179
 31
0.0
  0
LINE
  5
2CC
330
37
100
AcDbEntity
  8
Sichtbare Kanten(TC_020513_DIN)
100
AcDbLine
 10
81.05520478721123
 20
32.21172920358178
 30
0.0
 11
81.05520478721123
 21
36.21172920358179
 31
0.0
  0
LINE
  5
2CD
330
37
100
AcDbEntity
  8
Sichtbare Kanten(TC_020513_DIN)
100
AcDbLine
 10
79.55520478721123
 20
36.21172920358179
 30
0.0
 11
81.05520478721121
 21
36.21172920358179
 31
0.0
  0
LINE
  5
2CE
330
37
100
AcDbEntity
  8
Sichtbare Kanten(TC_020513_DIN)
100
AcDbLine
 10
79.55520478721123
 20
32.21172920358178
 30
0.0
 11
79.55520478721123
 21
36.21172920358177
 31
0.0
  0
LINE
  5
2CF
330
37
100
AcDbEntity
  8
Sichtbare Kanten(TC_020513_DIN)
100
AcDbLine
 10
82.55520478721122
 20
32.21172920358178
 30
0.0
 11
82.55520478721122
 21
36.21172920358177
 31
0.0
  0
ARC
  5
2D0
330
37
100
AcDbEntity
  8
Sichtbare Kanten(TC_020513_DIN)
100
AcDbCircle
 10
84.7276262995784
 20
33.57716976537304
 30
0.0
 40
3.000000000000041
100
AcDbArc
 50
207.0743834662247
 51
235.5985471972164
  0
ARC
  5
2D1
330
37
100
AcDbEntity
  8
Sichtbare Kanten(TC_020513_DIN)
100
AcDbCircle
 10
81.05520478721118
 20
28.21402514346475
 30
0.0
 40
3.500000000000007
100
AcDbArc
 50
124.4014528027824
 51
55.59854719721663
  0
CIRCLE
  5
2D2
330
37
100
AcDbEntity
  8
Sichtbare Kanten(TC_020513_DIN)
100
AcDbCircle
 10
81.05520478721119
 20
28.21402514346475
 30
0.0
 40
2.0
  0
ARC
  5
2D3
330
37
100
AcDbEntity
  8
Sichtbare Kanten(TC_020513_DIN)
100
AcDbCircle
 10
77.382783274844
 20
33.57716976537306
 30
0.0
 40
3.000000000000065
100
AcDbArc
 50
304.4014528027836
 51
332.9256165337751
  0
LINE
  5
2D4
330
37
100
AcDbEntity
  8
Sichtbare Kanten(TC_020513_DIN)
100
AcDbLine
 10
81.10520478721122
 20
53.77758993645412
 30
0.0
 11
82.50520478721123
 21
53.77758993645412
 31
0.0
  0
LINE
  5
2D5
330
37
100
AcDbEntity
  8
Sichtbare Kanten(TC_020513_DIN)
100
AcDbLine
 10
81.10520478721122
 20
57.77758993645412
 30
0.0
 11
82.50520478721123
 21
57.77758993645412
 31
0.0
  0
LINE
  5
2D6
330
37
100
AcDbEntity
  8
Sichtbare Kanten(TC_020513_DIN)
100
AcDbLine
 10
81.10520478721122
 20
53.77758993645412
 30
0.0
 11
81.10520478721122
 21
57.77758993645413
 31
0.0
  0
LINE
  5
2D7
330
37
100
AcDbEntity
  8
Sichtbare Kanten(TC_020513_DIN)
100
AcDbLine
 10
82.50520478721123
 20
53.77758993645412
 30
0.0
 11
82.50520478721123
 21
57.77758993645413
 31
0.0
  0
LINE
  5
2D8
330
37
100
AcDbEntity
  8
Sichtbare Kanten(TC_020513_DIN)
100
AcDbLine
 10
81.30520478721122
 20
36.21172920358179
 30
0.0
 11
81.30520478721122
 21
47.3249291296213
 31
0.0
  0
LINE
  5
2D9
330
37
100
AcDbEntity
  8
Sichtbare Kanten(TC_020513_DIN)
100
AcDbLine
 10
82.30520478721123
 20
36.21172920358179
 30
0.0
 11
82.30520478721123
 21
47.3249291296213
 31
0.0
  0
LINE
  5
2DA
330
37
100
AcDbEntity
  8
Sichtbare Kanten(TC_020513_DIN)
100
AcDbLine
 10
81.30520478721122
 20
59.29272840258037
 30
0.0
 11
81.30520478721122
 21
58.14987125972312
 31
0.0
  0
LINE
  5
2DB
330
37
100
AcDbEntity
  8
Sichtbare Kanten(TC_020513_DIN)
100
AcDbLine
 10
82.30520478721123
 20
58.14987125972312
 30
0.0
 11
82.30520478721123
 21
59.29272840258037
 31
0.0
  0
LINE
  5
2DC
330
37
100
AcDbEntity
  8
Sichtbare Kanten(TC_020513_DIN)
100
AcDbLine
 10
82.30520478721123
 20
61.13473279359745
 30
0.0
 11
82.30520478721123
 21
64.27758993645412
 31
0.0
  0
LINE
  5
2DD
330
37
100
AcDbEntity
  8
Sichtbare Kanten(TC_020513_DIN)
100
AcDbLine
 10
81.30520478721122
 20
59.29272840258038
 30
0.0
 11
81.30520478721122
 21
61.13473279359745
 31
0.0
  0
LINE
  5
2DE
330
37
100
AcDbEntity
  8
Sichtbare Kanten(TC_020513_DIN)
100
AcDbLine
 10
82.30520478721123
 20
59.29272840258038
 30
0.0
 11
82.30520478721123
 21
61.13473279359745
 31
0.0
  0
LINE
  5
2DF
330
37
100
AcDbEntity
  8
Sichtbare Kanten(TC_020513_DIN)
100
AcDbLine
 10
81.30520478721122
 20
64.27758993645412
 30
0.0
 11
81.30520478721122
 21
61.13473279359745
 31
0.0
  0
ARC
  5
2E0
330
37
100
AcDbEntity
  8
Sichtbare Kanten(TC_020513_DIN)
100
AcDbCircle
 10
81.80520478721122
 20
64.27758993645412
 30
0.0
 40
0.5
100
AcDbArc
 50
0.0
 51
180.0
  0
LINE
  5
2E1
330
37
100
AcDbEntity
  8
Sichtbare Kanten(TC_020513_DIN)
100
AcDbLine
 10
81.30520478721122
 20
57.7775899364541
 30
0.0
 11
81.30520478721122
 21
58.14987125972312
 31
0.0
  0
LINE
  5
2E2
330
37
100
AcDbEntity
  8
Sichtbare Kanten(TC_020513_DIN)
100
AcDbLine
 10
82.30520478721123
 20
57.7775899364541
 30
0.0
 11
82.30520478721123
 21
58.14987125972312
 31
0.0
  0
LINE
  5
2E3
330
37
100
AcDbEntity
  8
Sichtbare Kanten(TC_020513_DIN)
100
AcDbLine
 10
81.30520478721122
 20
48.32492817594698
 30
0.0
 11
81.30520478721122
 21
53.77758993645413
 31
0.0
  0
LINE
  5
2E4
330
37
100
AcDbEntity
  8
Sichtbare Kanten(TC_020513_DIN)
100
AcDbLine
 10
82.30520478721123
 20
48.32492817594698
 30
0.0
 11
82.30520478721123
 21
53.77758993645413
 31
0.0
  0
POLYLINE
  5
2E5
330
37
100
AcDbEntity
  8
Bruchlinien(TC_020513_DIN)
100
AcDb2dPolyline
 66
     1
 10
0.0
 20
0.0
 30
0.0
 70
   128
  0
VERTEX
  5
2E6
330
2E5
100
AcDbEntity
  8
Bruchlinien(TC_020513_DIN)
100
AcDbVertex
100
AcDb2dVertex
 10
78.13020471568565
 20
47.32492912962131
 30
0.0
  0
VERTEX
  5
2E7
330
2E5
100
AcDbEntity
  8
Bruchlinien(TC_020513_DIN)
100
AcDbVertex
100
AcDb2dVertex
 10
81.5938799278007
 20
47.32492912962131
 30
0.0
  0
VERTEX
  5
2E9
330
2E5
100
AcDbEntity
  8
Bruchlinien(TC_020513_DIN)
100
AcDbVertex
100
AcDb2dVertex
 10
81.66086722250442
 20
47.57492769910983
 30
0.0
  0
VERTEX
  5
2EA
330
2E5
100
AcDbEntity
  8
Bruchlinien(TC_020513_DIN)
100
AcDbVertex
100
AcDb2dVertex
 10
81.94954235191802
 20
47.07492817594699
 30
0.0
  0
VERTEX
  5
2EB
330
2E5
100
AcDbEntity
  8
Bruchlinien(TC_020513_DIN)
100
AcDbVertex
100
AcDb2dVertex
 10
82.01652964662175
 20
47.32492912962131
 30
0.0
  0
VERTEX
  5
2EC
330
2E5
100
AcDbEntity
  8
Bruchlinien(TC_020513_DIN)
100
AcDbVertex
100
AcDb2dVertex
 10
85.4802048587368
 20
47.32492912962131
 30
0.0
  0
SEQEND
  5
2E8
330
2E5
100
AcDbEntity
  8
Bruchlinien(TC_020513_DIN)
  0
POLYLINE
  5
2ED
330
37
100
AcDbEntity
  8
Bruchlinien(TC_020513_DIN)
100
AcDb2dPolyline
 66
     1
 10
0.0
 20
0.0
 30
0.0
 70
   128
  0
VERTEX
  5
2EE
330
2ED
100
AcDbEntity
  8
Bruchlinien(TC_020513_DIN)
100
AcDbVertex
100
AcDb2dVertex
 10
78.13020471568565
 20
48.32492817594699
 30
0.0
  0
VERTEX
  5
2EF
330
2ED
100
AcDbEntity
  8
Bruchlinien(TC_020513_DIN)
100
AcDbVertex
100
AcDb2dVertex
 10
81.5938799278007
 20
48.32492817594699
 30
0.0
  0
VERTEX
  5
2F1
330
2ED
100
AcDbEntity
  8
Bruchlinien(TC_020513_DIN)
100
AcDbVertex
100
AcDb2dVertex
 10
81.66086722250442
 20
48.57492912962131
 30
0.0
  0
VERTEX
  5
2F2
330
2ED
100
AcDbEntity
  8
Bruchlinien(TC_020513_DIN)
100
AcDbVertex
100
AcDb2dVertex
 10
81.94954235191802
 20
48.07492960645847
 30
0.0
  0
VERTEX
  5
2F3
330
2ED
100
AcDbEntity
  8
Bruchlinien(TC_020513_DIN)
100
AcDbVertex
100
AcDb2dVertex
 10
82.01652964662175
 20
48.32492817594699
 30
0.0
  0
VERTEX
  5
2F4
330
2ED
100
AcDbEntity
  8
Bruchlinien(TC_020513_DIN)
100
AcDbVertex
100
AcDb2dVertex
 10
85.4802048587368
 20
48.32492817594699
 30
0.0
  0
SEQEND
  5
2F0
330
2ED
100
AcDbEntity
  8
Bruchlinien(TC_020513_DIN)
  0
DIMENSION
  5
2F5
330
37
100
AcDbEntity
  8
Bemaßungen(TC_020513_DIN)
  6
Continuous
 62
     7
370
    25
100
AcDbDimension
  2
*D11
 10
141.8052047872998
 20
145.5349427888244
 30
0.0
 11
81.80520478729986
 21
145.5349427888244
 31
0.0
 70
   160
  1
<>
 42
120.0
  3
STANDARD-TC_020513_DIN
100
AcDbAlignedDimension
 13
21.80520478729986
 23
173.5349427888244
 33
0.0
 14
141.8052047872998
 24
173.5349427888244
 34
0.0
 50
180.0
100
AcDbRotatedDimension
1001
ACAD
1000
DSTYLE
1002
{
1070
   271
1070
     2
1070
   272
1070
     2
1070
    48
1040
0.0
1070
    47
1040
0.0
1002
}
  0
DIMENSION
  5
3B1
330
37
100
AcDbEntity
  8
Bemaßungen(TC_020513_DIN)
  6
Continuous
 62
     7
370
    25
100
AcDbDimension
  2
*D12
 10
163.6537213479701
 20
59.77758993645545
 30
0.0
 11
163.6537213479701
 21
87.27758993645545
 31
0.0
 70
   160
  1
<>
 42
55.0
  3
STANDARD-TC_020513_DIN
100
AcDbAlignedDimension
 13
118.8052047872112
 23
114.7775899364554
 33
0.0
 14
118.8052047872112
 24
59.77758993645545
 34
0.0
 50
90.0
100
AcDbRotatedDimension
1001
ACAD
1000
DSTYLE
1002
{
1070
   271
1070
     2
1070
   272
1070
     2
1070
    48
1040
0.0
1070
    47
1040
0.0
1002
}
  0
DIMENSION
  5
476
330
37
100
AcDbEntity
  8
Bemaßungen(TC_020513_DIN)
  6
Continuous
 62
     7
370
    25
100
AcDbDimension
  2
*D13
 10
234.4855279281031
 20
145.5349427888244
 30
0.0
 11
212.9855279281031
 21
145.5349427888244
 31
0.0
 70
   160
  1
<>
 42
43.0
  3
STANDARD-TC_020513_DIN
100
AcDbAlignedDimension
 13
191.4855279281031
 23
173.5349427888244
 33
0.0
 14
234.4855279281031
 24
168.5349427888244
 34
0.0
100
AcDbRotatedDimension
1001
ACAD
1000
DSTYLE
1002
{
1070
   271
1070
     2
1070
   272
1070
     2
1070
    48
1040
0.0
1070
    47
1040
0.0
1002
}
  0
DIMENSION
  5
53B
330
37
100
AcDbEntity
  8
Bemaßungen(TC_020513_DIN)
  6
Continuous
 62
     7
370
    25
100
AcDbDimension
  2
*D14
 10
173.7276197469802
 20
168.5349427888244
 30
0.0
 11
173.7276197469802
 21
174.5349427888244
 31
0.0
 70
   160
  1
<>
 42
12.0
  3
STANDARD-TC_020513_DIN
100
AcDbAlignedDimension
 13
195.7855279281024
 23
180.5349427888244
 33
0.0
 14
195.7855279281018
 24
168.5349427888244
 34
0.0
 50
90.0
100
AcDbRotatedDimension
1001
ACAD
1000
DSTYLE
1002
{
1070
   271
1070
     2
1070
   272
1070
     2
1070
    48
1040
0.0
1070
    47
1040
0.0
1002
}
  0
LINE
  5
600
330
37
100
AcDbEntity
  8
Mittellinie(TC_020513_DIN)
  6
CHAIN
 48
3.888577222824096
100
AcDbLine
 10
34.80520478729987
 20
171.0349427888244
 30
0.0
 11
34.80520478729987
 21
164.0349427888244
 31
0.0
  0
LINE
  5
601
330
37
100
AcDbEntity
  8
Mittellinie(TC_020513_DIN)
  6
CHAIN
 48
3.888577222824096
100
AcDbLine
 10
128.8052047872999
 20
171.0349427888244
 30
0.0
 11
128.8052047872999
 21
164.0349427888244
 31
0.0
  0
LINE
  5
602
330
37
100
AcDbEntity
  8
Mittellinie(TC_020513_DIN)
  6
CHAIN
 48
11.99379158020019
100
AcDbLine
 10
81.80520478729983
 20
184.1778327753767
 30
0.0
 11
81.80520478729988
 21
161.9519641174028
 31
0.0
  0
LINE
  5
603
330
37
100
AcDbEntity
  8
Mittellinie(TC_020513_DIN)
  6
CHAIN
 48
5.277390480041503
100
AcDbLine
 10
182.9855279281086
 20
174.0349427888244
 30
0.0
 11
192.4855279281086
 21
174.0349427888244
 31
0.0
  0
LINE
  5
604
330
37
100
AcDbEntity
  8
Mittellinie(TC_020513_DIN)
  6
CHAIN
 48
3.888577222824096
100
AcDbLine
 10
203.4855279281031
 20
171.0349427888244
 30
0.0
 11
203.4855279281031
 21
164.0349427888244
 31
0.0
  0
LINE
  5
605
330
37
100
AcDbEntity
  8
Mittellinie(TC_020513_DIN)
  6
CHAIN
 48
3.888577222824096
100
AcDbLine
 10
222.4855279281031
 20
171.0349427888244
 30
0.0
 11
222.4855279281031
 21
164.0349427888244
 31
0.0
  0
LINE
  5
606
330
37
100
AcDbEntity
  8
Mittellinie(TC_020513_DIN)
  6
CHAIN
 48
5.277390480041503
100
AcDbLine
 10
233.4855279281086
 20
174.0349427888244
 30
0.0
 11
242.9855279281087
 21
174.0349427888244
 31
0.0
  0
LINE
  5
607
330
37
100
AcDbEntity
  8
Mittellinie(TC_020513_DIN)
  6
CHAIN
 48
4.867725372314453
100
AcDbLine
 10
240.7480910610428
 20
169.5349427888244
 30
0.0
 11
231.9855279281181
 21
169.5349427888244
 31
0.0
  0
LINE
  5
608
330
37
100
AcDbEntity
  8
Mittellinie(TC_020513_DIN)
  6
CHAIN
 48
11.99379158020019
100
AcDbLine
 10
212.9855279281031
 20
184.682966153967
 30
0.0
 11
212.9855279281031
 21
164.2250643210591
 31
0.0
  0
LINE
  5
609
330
37
100
AcDbEntity
  8
Mittellinie(TC_020513_DIN)
  6
CHAIN
 48
5.277390480041503
100
AcDbLine
 10
118.8052047872112
 20
107.7775899364554
 30
0.0
 11
118.8052047872112
 21
117.2775899364554
 31
0.0
  0
LINE
  5
60A
330
37
100
AcDbEntity
  8
Mittellinie(TC_020513_DIN)
  6
CHAIN
 48
5.277390480041503
100
AcDbLine
 10
44.80520478721122
 20
117.2775899364554
 30
0.0
 11
44.80520478721122
 21
107.7775899364554
 31
0.0
  0
LINE
  5
60B
330
37
100
AcDbEntity
  8
Mittellinie(TC_020513_DIN)
  6
CHAIN
 48
5.277390480041503
100
AcDbLine
 10
44.80520478721122
 20
66.77758993645546
 30
0.0
 11
44.80520478721122
 21
57.27758993645545
 31
0.0
  0
LINE
  5
60C
330
37
100
AcDbEntity
  8
Mittellinie(TC_020513_DIN)
  6
CHAIN
 48
5.277390480041503
100
AcDbLine
 10
118.8052047872112
 20
57.27758993645545
 30
0.0
 11
118.8052047872112
 21
66.77758993645546
 31
0.0
  0
LINE
  5
60D
330
37
100
AcDbEntity
  8
Mittellinie(TC_020513_DIN)
  6
CHAIN
 48
11.99379158020019
100
AcDbLine
 10
81.80520478721124
 20
112.964112367304
 30
0.0
 11
81.80520478721119
 21
59.63739785661854
 31
0.0
  0
ENDSEC
  0
SECTION
  2
OBJECTS
  0
DICTIONARY
  5
C
330
0
100
AcDbDictionary
281
     1
  3
ACAD_COLOR
350
30
  3
ACAD_GROUP
350
D
  3
ACAD_LAYOUT
350
2F
  3
ACAD_MATERIAL
350
10
  3
ACAD_MLINESTYLE
350
2C
  3
ACAD_PLOTSETTINGS
350
2E
  3
ACAD_PLOTSTYLENAME
350
E
  3
ACAD_TABLESTYLE
350
31
  3
ACAD_VISUALSTYLE
350
14
  3
AcDbVariableDictionary
350
60E
  3
DWGPROPS
350
614
  0
DICTIONARY
  5
623
330
FC
100
AcDbDictionary
280
     1
281
     1
  3
ACAD_MTEXT_RT
360
624
  0
DICTIONARY
  5
625
330
10C
100
AcDbDictionary
280
     1
281
     1
  3
ACAD_MTEXT_RT
360
626
  0
DICTIONARY
  5
627
330
12D
100
AcDbDictionary
280
     1
281
     1
  3
ACAD_MTEXT_RT
360
628
  0
DICTIONARY
  5
30
102
{ACAD_REACTORS
330
C
102
}
330
C
100
AcDbDictionary
281
     1
  0
DICTIONARY
  5
D
102
{ACAD_REACTORS
330
C
102
}
330
C
100
AcDbDictionary
281
     1
  0
DICTIONARY
  5
2F
102
{ACAD_REACTORS
330
C
102
}
330
C
100
AcDbDictionary
281
     1
  3
Layout1
350
36
  3
Layout2
350
3E
  3
Model
350
3A
  0
DICTIONARY
  5
10
102
{ACAD_REACTORS
330
C
102
}
330
C
100
AcDbDictionary
281
     1
  3
ByBlock
350
12
  3
ByLayer
350
11
  3
Global
350
13
  0
DICTIONARY
  5
2C
102
{ACAD_REACTORS
330
C
102
}
330
C
100
AcDbDictionary
281
     1
  3
Standard
350
2D
  0
DICTIONARY
  5
2E
102
{ACAD_REACTORS
330
C
102
}
330
C
100
AcDbDictionary
281
     1
  0
ACDBDICTIONARYWDFLT
  5
E
102
{ACAD_REACTORS
330
C
102
}
330
C
100
AcDbDictionary
281
     1
  3
Normal
350
F
100
AcDbDictionaryWithDefault
340
F
  0
DICTIONARY
  5
31
102
{ACAD_REACTORS
330
C
102
}
330
C
100
AcDbDictionary
281
     1
  3
Standard
350
32
  0
DICTIONARY
  5
14
102
{ACAD_REACTORS
330
C
102
}
330
C
100
AcDbDictionary
281
     1
  3
2dWireframe
350
1A
  3
3D Hidden
350
1C
  3
3dWireframe
350
1B
  3
Basic
350
19
  3
Brighten
350
20
  3
ColorChange
350
24
  3
Conceptual
350
1D
  3
Dim
350
1F
  3
Facepattern
350
23
  3
Flat
350
15
  3
FlatWithEdges
350
16
  3
Gouraud
350
17
  3
GouraudWithEdges
350
18
  3
Linepattern
350
22
  3
Realistic
350
1E
  3
Thicken
350
21
  0
DICTIONARY
  5
60E
102
{ACAD_REACTORS
330
C
102
}
330
C
100
AcDbDictionary
281
     1
  3
CTABLESTYLE
350
60F
  3
DIMASSOC
350
613
  3
HIDETEXT
350
612
  3
INDEXCTL
350
611
  3
SORTENTS
350
610
  0
XRECORD
  5
614
102
{ACAD_REACTORS
330
C
102
}
330
C
100
AcDbXrecord
280
     1
  1
DWGPROPS COOKIE
  2

  3

  4
bräunlich
  6

  7

  8

  9

300
Manager=
301
Firma=
302
Kategorie=
303
Bauteilnummer=CHCW 24
304
Bezeichnung=
305
Projekt=
306
Konstrukteur=bräunlich
307
Ingenieur=
308
Bevollmächtigter=
309
Kostenstelle=
 40
0.0000745023148148
 41
2454105.399281898
 42
2454105.399281898
  1

 90
       22
300
Zulieferer=
300
Benutzerstatus=
300
Konstruktionsstatus=InBearbeitung
300
Kontrolliert von=
300
Konstruktion genehmigt von=
300
Fertigung genehmigt von=
300
FirstViewScale:1=1:1
300
SaveDate=08/30/2006
300
SaveTime=14:09
300
PaperSize=A4
300
AllViewScales=1:1
300
FirstViewScale=1:1
  0
XRECORD
  5
624
102
{ACAD_REACTORS
330
623
102
}
330
623
100
AcDbXrecord
280
     1
 40
45260.0
  1
Für spanlose Bearbeitung
  0
XRECORD
  5
626
102
{ACAD_REACTORS
330
625
102
}
330
625
100
AcDbXrecord
280
     1
 40
49954.0
  1
Alle nicht bemaßten Radien R
  0
XRECORD
  5
628
102
{ACAD_REACTORS
330
627
102
}
330
627
100
AcDbXrecord
280
     1
 40
53914.0
  1
Werkstückkanten\Pnach ISO 13715
  0
LAYOUT
  5
36
102
{ACAD_XDICTIONARY
360
61D
102
}
102
{ACAD_REACTORS
330
2F
102
}
330
2F
100
AcDbPlotSettings
  1

  2

  4

  6

 40
0.0
 41
0.0
 42
0.0
 43
0.0
 44
0.0
 45
0.0
 46
0.0
 47
0.0
 48
0.0
 49
0.0
140
0.0
141
0.0
142
1.0
143
1.0
 70
   688
 72
     0
 73
     0
 74
     5
  7

 75
    16
147
1.0
148
0.0
149
0.0
100
AcDbLayout
  1
Layout1
 70
     1
 71
     1
 10
0.0
 20
0.0
 11
12.0
 21
9.0
 12
0.0
 22
0.0
 32
0.0
 14
0.0
 24
0.0
 34
0.0
 15
0.0
 25
0.0
 35
0.0
146
0.0
 13
0.0
 23
0.0
 33
0.0
 16
1.0
 26
0.0
 36
0.0
 17
0.0
 27
1.0
 37
0.0
 76
     0
330
33
  0
LAYOUT
  5
3E
102
{ACAD_XDICTIONARY
360
621
102
}
102
{ACAD_REACTORS
330
2F
102
}
330
2F
100
AcDbPlotSettings
  1

  2

  4

  6

 40
0.0
 41
0.0
 42
0.0
 43
0.0
 44
0.0
 45
0.0
 46
0.0
 47
0.0
 48
0.0
 49
0.0
140
0.0
141
0.0
142
1.0
143
1.0
 70
   688
 72
     0
 73
     0
 74
     5
  7

 75
    16
147
1.0
148
0.0
149
0.0
100
AcDbLayout
  1
Layout2
 70
     1
 71
     2
 10
0.0
 20
0.0
 11
12.0
 21
9.0
 12
0.0
 22
0.0
 32
0.0
 14
0.0
 24
0.0
 34
0.0
 15
0.0
 25
0.0
 35
0.0
146
0.0
 13
0.0
 23
0.0
 33
0.0
 16
1.0
 26
0.0
 36
0.0
 17
0.0
 27
1.0
 37
0.0
 76
     0
330
3B
  0
LAYOUT
  5
3A
102
{ACAD_XDICTIONARY
360
61F
102
}
102
{ACAD_REACTORS
330
2F
102
}
330
2F
100
AcDbPlotSettings
  1

  2

  4

  6

 40
0.0
 41
0.0
 42
0.0
 43
0.0
 44
0.0
 45
0.0
 46
0.0
 47
0.0
 48
0.0
 49
0.0
140
0.0
141
0.0
142
1.0
143
1.0
 70
  1712
 72
     0
 73
     0
 74
     0
  7

 75
     0
147
1.0
148
0.0
149
0.0
100
AcDbLayout
  1
Model
 70
     1
 71
     0
 10
0.0
 20
0.0
 11
12.0
 21
9.0
 12
0.0
 22
0.0
 32
0.0
 14
0.0
 24
0.0
 34
0.0
 15
0.0
 25
0.0
 35
0.0
146
0.0
 13
0.0
 23
0.0
 33
0.0
 16
1.0
 26
0.0
 36
0.0
 17
0.0
 27
1.0
 37
0.0
 76
     0
330
37
  0
MATERIAL
  5
12
102
{ACAD_XDICTIONARY
360
617
102
}
102
{ACAD_REACTORS
330
10
102
}
330
10
100
AcDbMaterial
  1
ByBlock
  0
MATERIAL
  5
11
102
{ACAD_XDICTIONARY
360
615
102
}
102
{ACAD_REACTORS
330
10
102
}
330
10
100
AcDbMaterial
  1
ByLayer
  0
MATERIAL
  5
13
102
{ACAD_XDICTIONARY
360
619
102
}
102
{ACAD_REACTORS
330
10
102
}
330
10
100
AcDbMaterial
  1
Global
  0
MLINESTYLE
  5
2D
102
{ACAD_REACTORS
330
2C
102
}
330
2C
100
AcDbMlineStyle
  2
STANDARD
 70
     0
  3

 62
   256
 51
90.0
 52
90.0
 71
     2
 49
0.5
 62
   256
  6
BYLAYER
 49
-0.5
 62
   256
  6
BYLAYER
  0
ACDBPLACEHOLDER
  5
F
102
{ACAD_REACTORS
330
E
102
}
330
E
  0
TABLESTYLE
  5
32
102
{ACAD_XDICTIONARY
360
61B
102
}
102
{ACAD_REACTORS
330
31
102
}
330
31
100
AcDbTableStyle
  3
Standard
 70
     0
 71
     0
 40
0.06
 41
0.06
280
     0
281
     0
  7
Standard
140
0.18
170
     2
 62
     0
 63
     7
283
     0
274
    -2
284
     1
 64
     0
275
    -2
285
     1
 65
     0
276
    -2
286
     1
 66
     0
277
    -2
287
     1
 67
     0
278
    -2
288
     1
 68
     0
279
    -2
289
     1
 69
     0
  7
Standard
140
0.25
170
     5
 62
     0
 63
     7
283
     0
274
    -2
284
     1
 64
     0
275
    -2
285
     1
 65
     0
276
    -2
286
     1
 66
     0
277
    -2
287
     1
 67
     0
278
    -2
288
     1
 68
     0
279
    -2
289
     1
 69
     0
  7
Standard
140
0.18
170
     5
 62
     0
 63
     7
283
     0
274
    -2
284
     1
 64
     0
275
    -2
285
     1
 65
     0
276
    -2
286
     1
 66
     0
277
    -2
287
     1
 67
     0
278
    -2
288
     1
 68
     0
279
    -2
289
     1
 69
     0
  0
VISUALSTYLE
  5
1A
102
{ACAD_REACTORS
330
14
102
}
330
14
100
AcDbVisualStyle
  2
2dWireframe
 70
     4
 71
     0
 72
     2
 73
     0
 90
        0
 40
-0.6
 41
-30.0
 62
     5
 63
     7
 74
     1
 91
        4
 64
     7
 65
   257
 75
     1
175
     1
 42
1.0
 92
        0
 66
   257
 43
1.0
 76
     1
 77
     6
 78
     2
 67
     7
 79
     5
170
     0
171
     0
290
     0
174
     0
 93
        1
 44
0.0
173
     0
291
     0
 45
0.0
1001
ACAD
1000
AcDbSavedByObjectVersion
1070
     0
  0
VISUALSTYLE
  5
1C
102
{ACAD_REACTORS
330
14
102
}
330
14
100
AcDbVisualStyle
  2
3D Hidden
 70
     6
 71
     1
 72
     2
 73
     2
 90
        0
 40
-0.6
 41
-30.0
 62
     5
 63
     7
 74
     2
 91
        2
 64
     7
 65
   257
 75
     2
175
     1
 42
40.0
 92
        0
 66
   257
 43
1.0
 76
     1
 77
     6
 78
     2
 67
     7
 79
     3
170
     0
171
     0
290
     0
174
     0
 93
        1
 44
0.0
173
     0
291
     0
 45
0.0
1001
ACAD
1000
AcDbSavedByObjectVersion
1070
     0
  0
VISUALSTYLE
  5
1B
102
{ACAD_REACTORS
330
14
102
}
330
14
100
AcDbVisualStyle
  2
3dWireframe
 70
     5
 71
     0
 72
     2
 73
     0
 90
        0
 40
-0.6
 41
-30.0
 62
     5
 63
     7
 74
     1
 91
        4
 64
     7
 65
   257
 75
     1
175
     1
 42
1.0
 92
        0
 66
   257
 43
1.0
 76
     1
 77
     6
 78
     2
 67
     7
 79
     5
170
     0
171
     0
290
     0
174
     0
 93
        1
 44
0.0
173
     0
291
     0
 45
0.0
1001
ACAD
1000
AcDbSavedByObjectVersion
1070
     0
  0
VISUALSTYLE
  5
19
102
{ACAD_REACTORS
330
14
102
}
330
14
100
AcDbVisualStyle
  2
Basic
 70
     7
 71
     1
 72
     0
 73
     1
 90
        0
 40
-0.6
 41
-30.0
 62
     5
 63
     7
 74
     0
 91
        4
 64
     7
 65
   257
 75
     1
175
     1
 42
1.0
 92
        8
 66
     7
 43
1.0
 76
     1
 77
     6
 78
     2
 67
     7
 79
     5
170
     0
171
     0
290
     0
174
     0
 93
        1
 44
0.0
173
     0
291
     1
 45
0.0
1001
ACAD
1000
AcDbSavedByObjectVersion
1070
     0
  0
VISUALSTYLE
  5
20
102
{ACAD_REACTORS
330
14
102
}
330
14
100
AcDbVisualStyle
  2
Brighten
 70
    12
 71
     2
 72
     2
 73
     0
 90
        0
 40
-0.6
 41
-30.0
 62
     5
 63
     7
 74
     1
 91
        4
 64
     7
 65
   257
 75
     1
175
     1
 42
1.0
 92
        8
 66
     7
 43
1.0
 76
     1
 77
     6
 78
     2
 67
     7
 79
     5
170
     0
171
     0
290
     0
174
     0
 93
        1
 44
50.0
173
     0
291
     1
 45
0.0
1001
ACAD
1000
AcDbSavedByObjectVersion
1070
     0
  0
VISUALSTYLE
  5
24
102
{ACAD_REACTORS
330
14
102
}
330
14
100
AcDbVisualStyle
  2
ColorChange
 70
    16
 71
     2
 72
     2
 73
     3
 90
        0
 40
-0.6
 41
-30.0
 62
     5
 63
     8
 74
     1
 91
        4
 64
     7
 65
   257
 75
     1
175
     1
 42
1.0
 92
        8
 66
     8
 43
1.0
 76
     1
 77
     6
 78
     2
 67
     7
 79
     5
170
     0
171
     0
290
     0
174
     0
 93
        1
 44
0.0
173
     0
291
     1
 45
0.0
1001
ACAD
1000
AcDbSavedByObjectVersion
1070
     0
  0
VISUALSTYLE
  5
1D
102
{ACAD_REACTORS
330
14
102
}
330
14
100
AcDbVisualStyle
  2
Conceptual
 70
     9
 71
     3
 72
     2
 73
     0
 90
        0
 40
-0.6
 41
-30.0
 62
     5
 63
     7
 74
     2
 91
        2
 64
     7
 65
   257
 75
     1
175
     1
 42
40.0
 92
        8
 66
     7
 43
1.0
 76
     1
 77
     6
 78
     2
 67
     7
 79
     3
170
     0
171
     0
290
     0
174
     0
 93
        1
 44
0.0
173
     0
291
     0
 45
0.0
1001
ACAD
1000
AcDbSavedByObjectVersion
1070
     0
  0
VISUALSTYLE
  5
1F
102
{ACAD_REACTORS
330
14
102
}
330
14
100
AcDbVisualStyle
  2
Dim
 70
    11
 71
     2
 72
     2
 73
     0
 90
        0
 40
-0.6
 41
-30.0
 62
     5
 63
     7
 74
     1
 91
        4
 64
     7
 65
   257
 75
     1
175
     1
 42
1.0
 92
        8
 66
     7
 43
1.0
 76
     1
 77
     6
 78
     2
 67
     7
 79
     5
170
     0
171
     0
290
     0
174
     0
 93
        1
 44
-50.0
173
     0
291
     1
 45
0.0
1001
ACAD
1000
AcDbSavedByObjectVersion
1070
     0
  0
VISUALSTYLE
  5
23
102
{ACAD_REACTORS
330
14
102
}
330
14
100
AcDbVisualStyle
  2
Facepattern
 70
    15
 71
     2
 72
     2
 73
     0
 90
        0
 40
-0.6
 41
-30.0
 62
     5
 63
     7
 74
     1
 91
        4
 64
     7
 65
   257
 75
     1
175
     1
 42
1.0
 92
        8
 66
     7
 43
1.0
 76
     1
 77
     6
 78
     2
 67
     7
 79
     5
170
     0
171
     0
290
     0
174
     0
 93
        1
 44
0.0
173
     0
291
     1
 45
0.0
1001
ACAD
1000
AcDbSavedByObjectVersion
1070
     0
  0
VISUALSTYLE
  5
15
102
{ACAD_REACTORS
330
14
102
}
330
14
100
AcDbVisualStyle
  2
Flat
 70
     0
 71
     2
 72
     1
 73
     1
 90
        2
 40
-0.6
 41
30.0
 62
     5
 63
     7
 74
     0
 91
        4
 64
     7
 65
   257
 75
     1
175
     1
 42
1.0
 92
        8
 66
     7
 43
1.0
 76
     1
 77
     6
 78
     2
 67
     7
 79
     5
170
     0
171
     0
290
     0
174
     0
 93
       13
 44
0.0
173
     0
291
     1
 45
0.0
1001
ACAD
1000
AcDbSavedByObjectVersion
1070
     0
  0
VISUALSTYLE
  5
16
102
{ACAD_REACTORS
330
14
102
}
330
14
100
AcDbVisualStyle
  2
FlatWithEdges
 70
     1
 71
     2
 72
     1
 73
     1
 90
        2
 40
-0.6
 41
30.0
 62
     5
 63
     7
 74
     1
 91
        4
 64
     7
 65
   257
 75
     1
175
     1
 42
1.0
 92
        0
 66
   257
 43
1.0
 76
     1
 77
     6
 78
     2
 67
     7
 79
     5
170
     0
171
     0
290
     0
174
     0
 93
       13
 44
0.0
173
     0
291
     1
 45
0.0
1001
ACAD
1000
AcDbSavedByObjectVersion
1070
     0
  0
VISUALSTYLE
  5
17
102
{ACAD_REACTORS
330
14
102
}
330
14
100
AcDbVisualStyle
  2
Gouraud
 70
     2
 71
     2
 72
     2
 73
     1
 90
        2
 40
-0.6
 41
30.0
 62
     5
 63
     7
 74
     0
 91
        4
 64
     7
 65
   257
 75
     1
175
     1
 42
1.0
 92
        0
 66
     7
 43
1.0
 76
     1
 77
     6
 78
     2
 67
     7
 79
     5
170
     0
171
     0
290
     0
174
     0
 93
       13
 44
0.0
173
     0
291
     1
 45
0.0
1001
ACAD
1000
AcDbSavedByObjectVersion
1070
     0
  0
VISUALSTYLE
  5
18
102
{ACAD_REACTORS
330
14
102
}
330
14
100
AcDbVisualStyle
  2
GouraudWithEdges
 70
     3
 71
     2
 72
     2
 73
     1
 90
        2
 40
-0.6
 41
30.0
 62
     5
 63
     7
 74
     1
 91
        4
 64
     7
 65
   257
 75
     1
175
     1
 42
1.0
 92
        0
 66
   257
 43
1.0
 76
     1
 77
     6
 78
     2
 67
     7
 79
     5
170
     0
171
     0
290
     0
174
     0
 93
       13
 44
0.0
173
     0
291
     1
 45
0.0
1001
ACAD
1000
AcDbSavedByObjectVersion
1070
     0
  0
VISUALSTYLE
  5
22
102
{ACAD_REACTORS
330
14
102
}
330
14
100
AcDbVisualStyle
  2
Linepattern
 70
    14
 71
     2
 72
     2
 73
     0
 90
        0
 40
-0.6
 41
-30.0
 62
     5
 63
     7
 74
     1
 91
        4
 64
     7
 65
   257
 75
     7
175
     7
 42
1.0
 92
        8
 66
     7
 43
1.0
 76
     1
 77
     6
 78
     2
 67
     7
 79
     5
170
     0
171
     0
290
     0
174
     0
 93
        1
 44
0.0
173
     0
291
     1
 45
0.0
1001
ACAD
1000
AcDbSavedByObjectVersion
1070
     0
  0
VISUALSTYLE
  5
1E
102
{ACAD_REACTORS
330
14
102
}
330
14
100
AcDbVisualStyle
  2
Realistic
 70
     8
 71
     2
 72
     2
 73
     0
 90
        0
 40
-0.6
 41
-30.0
 62
     5
 63
     7
 74
     1
 91
        0
 64
     7
 65
   257
 75
     1
175
     1
 42
1.0
 92
        8
 66
     8
 43
1.0
 76
     1
 77
     6
 78
     2
 67
     7
 79
     5
170
     0
171
     0
290
     0
174
     0
 93
       13
 44
0.0
173
     0
291
     0
 45
0.0
1001
ACAD
1000
AcDbSavedByObjectVersion
1070
     0
  0
VISUALSTYLE
  5
21
102
{ACAD_REACTORS
330
14
102
}
330
14
100
AcDbVisualStyle
  2
Thicken
 70
    13
 71
     2
 72
     2
 73
     0
 90
        0
 40
-0.6
 41
-30.0
 62
     5
 63
     7
 74
     1
 91
        4
 64
     7
 65
   257
 75
     1
175
     1
 42
1.0
 92
       12
 66
     7
 43
1.0
 76
     1
 77
     6
 78
     2
 67
     7
 79
     5
170
     0
171
     0
290
     0
174
     0
 93
        1
 44
0.0
173
     0
291
     1
 45
0.0
1001
ACAD
1000
AcDbSavedByObjectVersion
1070
     0
  0
DICTIONARYVAR
  5
60F
102
{ACAD_REACTORS
330
60E
102
}
330
60E
100
DictionaryVariables
280
     0
  1
STANDARD
  0
DICTIONARYVAR
  5
613
102
{ACAD_REACTORS
330
60E
102
}
330
60E
100
DictionaryVariables
280
     0
  1
1
  0
DICTIONARYVAR
  5
612
102
{ACAD_REACTORS
330
60E
102
}
330
60E
100
DictionaryVariables
280
     0
  1
1
  0
DICTIONARYVAR
  5
611
102
{ACAD_REACTORS
330
60E
102
}
330
60E
100
DictionaryVariables
280
     0
  1
0
  0
DICTIONARYVAR
  5
610
102
{ACAD_REACTORS
330
60E
102
}
330
60E
100
DictionaryVariables
280
     0
  1
127
  0
DICTIONARY
  5
61D
330
36
100
AcDbDictionary
280
     1
281
     1
  3
ACAD_XREC_ROUNDTRIP
360
61E
  0
DICTIONARY
  5
621
330
3E
100
AcDbDictionary
280
     1
281
     1
  3
ACAD_XREC_ROUNDTRIP
360
622
  0
DICTIONARY
  5
61F
330
3A
100
AcDbDictionary
280
     1
281
     1
  3
ACAD_XREC_ROUNDTRIP
360
620
  0
DICTIONARY
  5
617
330
12
100
AcDbDictionary
280
     1
281
     1
  3
ACAD_XREC_ROUNDTRIP
360
618
  0
DICTIONARY
  5
615
330
11
100
AcDbDictionary
280
     1
281
     1
  3
ACAD_XREC_ROUNDTRIP
360
616
  0
DICTIONARY
  5
619
330
13
100
AcDbDictionary
280
     1
281
     1
  3
ACAD_XREC_ROUNDTRIP
360
61A
  0
DICTIONARY
  5
61B
330
32
100
AcDbDictionary
280
     1
281
     1
  3
ACAD_XREC_ROUNDTRIP
360
61C
  0
XRECORD
  5
61E
102
{ACAD_REACTORS
330
61D
102
}
330
61D
100
AcDbXrecord
280
     1
102
SHADEPLOT
 70
     0
102
SHADEPLOTRESLEVEL
 70
     2
102
SHADEPLOTCUSTOMDPI
 70
   300
  0
XRECORD
  5
622
102
{ACAD_REACTORS
330
621
102
}
330
621
100
AcDbXrecord
280
     1
102
SHADEPLOT
 70
     0
102
SHADEPLOTRESLEVEL
 70
     2
102
SHADEPLOTCUSTOMDPI
 70
   300
  0
XRECORD
  5
620
102
{ACAD_REACTORS
330
61F
102
}
330
61F
100
AcDbXrecord
280
     1
102
SHADEPLOT
 70
     0
102
SHADEPLOTRESLEVEL
 70
     2
102
SHADEPLOTCUSTOMDPI
 70
   300
  0
XRECORD
  5
618
102
{ACAD_REACTORS
330
617
102
}
330
617
100
AcDbXrecord
280
     1
102
MATERIAL
148
0.0
149
0.0
149
0.0
 93
        0
 94
       63
282
     0
 72
     1
 77
     1
171
     1
175
     1
179
     1
273
     0
  0
XRECORD
  5
616
102
{ACAD_REACTORS
330
615
102
}
330
615
100
AcDbXrecord
280
     1
102
MATERIAL
148
0.0
149
0.0
149
0.0
 93
        0
 94
       63
282
     0
 72
     1
 77
     1
171
     1
175
     1
179
     1
273
     0
  0
XRECORD
  5
61A
102
{ACAD_REACTORS
330
619
102
}
330
619
100
AcDbXrecord
280
     1
102
MATERIAL
148
0.0
149
0.0
149
0.0
 93
        0
 94
       63
282
     0
 72
     1
 77
     1
171
     1
175
     1
179
     1
273
     0
  0
XRECORD
  5
61C
102
{ACAD_REACTORS
330
61B
102
}
330
61B
100
AcDbXrecord
280
     1
102
ACAD_ROUNDTRIP_PRE2007_TABLESTYLE
 90
      512
 91
        0
  1

 92
      512
 93
        0
  2

 94
      512
 95
        0
  3

  0
ENDSEC
  0
EOF
